<?xml version="1.0" standalone="no"?>
<!DOCTYPE svg PUBLIC "-//W3C//DTD SVG 1.1//EN" "http://www.w3.org/Graphics/SVG/1.1/DTD/svg11.dtd" >
<svg xmlns="http://www.w3.org/2000/svg">
<metadata>
This is a custom SVG webfont generated by Font Squirrel.
Copyright   : Copyright c PJL 2002 All rights reserved
Designer    : PJL
</metadata>
<defs>
<font id="webfontCwXJPeGz" horiz-adv-x="422" >
<font-face units-per-em="1000" ascent="800" descent="-200" />
<missing-glyph horiz-adv-x="203" />
<glyph unicode=" "  horiz-adv-x="203" />
<glyph unicode="&#x09;" horiz-adv-x="203" />
<glyph unicode="&#xa0;" horiz-adv-x="203" />
<glyph unicode="!" horiz-adv-x="307" d="M18 50q0 -23 13 -32t35 -9h19q14 8 19.5 21t5.5 28q0 20 -10.5 31.5t-32.5 11.5q-23 0 -36 -14t-13 -37zM27 159l1.5 -4t3.5 -8.5t4.5 -8.5t4.5 -4l0.5 0.5t1.5 0.5q7 16 15.5 28t18.5 22t21.5 20l26.5 22q3 2 3.5 2.5t0.5 4.5q0 1 -0.5 2.5t-0.5 2.5q-14 12 -18.5 19 t-8.5 24q0 9 -0.5 33t-1 51t-1 51t-0.5 34v7v7t3 7q0 6 -0.5 21t-0.5 32q0 18 0.5 33t0.5 21q0 21 4.5 42.5t14.5 39.5t26.5 30t40.5 14q2 0 14.5 -1t18.5 -2q7 -1 16 -6t9 -12v-3q-13 2 -22 -2t-14 -11.5t-7.5 -17.5t-2.5 -20v-17q7 -13 17.5 -20.5t24.5 -7.5q22 0 36 14.5 t14 37.5q0 40 -28 62t-66 22q-37 0 -68.5 -16t-54 -42.5t-35 -60t-12.5 -69.5v-374z" />
<glyph unicode="," horiz-adv-x="133" d="M17 -99q11 0 28 16t32.5 38t27 44.5t11.5 35.5q0 6 -5 17.5t-11.5 23t-13.5 20t-11 8.5q-7 0 -16 -9t-16.5 -21t-13 -24.5t-5.5 -19.5t4.5 -13.5t9.5 -14.5t9.5 -18t4.5 -23q0 -9 -5.5 -16t-12 -14t-12 -14t-5.5 -16z" />
<glyph unicode="-" d="M18 217q24 12 52 12h162q10 -5 25.5 -7.5t32 -4t32.5 -1.5t27 1q5 -4 12.5 -5t13.5 -1q4 0 6 5.5t3.5 13t2 14.5t2.5 10q4 6 10 7.5t6 11.5q-20 0 -44.5 -4t-42.5 -6l-6 -3h-46q-8 -1 -19 -1.5t-18 -4.5h-55q-9 5 -22 4.5t-24 1.5l-38.5 9t-37.5 12l-0.5 0.5t-1.5 0.5 l-1 -1q-8 -9 -6.5 -13t0.5 -14q-1 -6 -5 -9.5t-8.5 -7t-8 -7.5t-3.5 -10v-3z" />
<glyph unicode="." horiz-adv-x="128" d="M17 49q0 -26 16.5 -36t39.5 -10q19 0 28 16.5t9 31.5q0 21 -5.5 30.5t-28.5 16.5h-8q-20 0 -35.5 -13.5t-15.5 -35.5z" />
<glyph unicode="0" horiz-adv-x="403" d="M18 265q0 -21 3 -41q4 -32 17 -71.5t35 -75t52.5 -59.5t70.5 -24q36 0 64.5 18t49.5 47.5t35.5 66.5t23.5 75.5t13 74.5t4 63q0 77 -21.5 150t-79.5 127q-6 6 -15.5 12.5t-17.5 6.5q-5 0 -5.5 -4.5t-4.5 -4.5q-14 0 -26.5 7.5t-27.5 7.5q-33 0 -58.5 -18.5t-44.5 -47.5 t-32 -66t-20.5 -74.5t-11 -71.5t-3.5 -57v-41zM106 226v18v17t0.5 22t0.5 19v11q0 10 1.5 36l3 54.5t2.5 54.5t2 36q2 16 4 35t7 36.5t14.5 32t26.5 21.5q2 1 9 1h10q19 0 35 -8t27.5 -21.5t17.5 -30.5t6 -36t-5.5 -35.5t-22.5 -28.5h-2q-2 0 -3.5 6.5t-4.5 15t-9.5 15 t-18.5 6.5q-17 0 -25 -10.5t-8 -26.5q0 -20 13.5 -28.5t30.5 -8.5q29 0 47 21t23 47q0 1 0.5 5t1 8.5t1 8.5t0.5 5q0 4 3 7l3 -3q1 -3 2 -11.5t1 -10.5v-17q0 -11 0.5 -23.5t0.5 -24.5v-16v-21t-0.5 -26t-0.5 -23v-11q0 -9 -1.5 -32.5t-3 -50t-2.5 -50t-2 -33.5 q-2 -20 -5.5 -49t-12.5 -55.5t-26.5 -45.5t-45.5 -19q-34 0 -52.5 16.5t-27.5 41t-11 53.5t-3 55v9q0 9 -0.5 20t-0.5 22zM269 600v1q10 -6 16 -19t6 -24h-3q-1 3 -4 9.5t-6.5 13t-6 12t-2.5 7.5z" />
<glyph unicode="1" horiz-adv-x="312" d="M16 581q0 -17 12 -25t28 -8q13 0 24.5 5t24.5 5q10 0 17.5 -7t6.5 -18q0 -14 0.5 -50t1 -76t1 -75.5t0.5 -49.5q0 -2 0.5 -14.5t0.5 -28.5v-33v-25v-21v-30t-0.5 -30.5t-0.5 -20.5q-5 -21 -16.5 -29.5t-24.5 -11.5t-22.5 -4t-9.5 -8v-5q0 -2 3 -3q8 0 27.5 -0.5t41.5 -1 t41.5 -1t27.5 -0.5h41h42q5 0 8.5 3t3.5 8t-11.5 7t-25.5 5.5t-25.5 10.5t-11.5 24v512q0 33 13 49.5t39 33.5q5 3 5 8v11q-14 0 -20 -4t-18 -9q-7 -5 -25 -16.5l-38 -25l-38 -25t-25 -16.5q-9 -6 -21.5 -12t-24.5 -6q-5 0 -6 5t-3 10.5t-6.5 10.5t-16.5 5h-11q-7 -5 -8 -10 t-1 -13z" />
<glyph unicode="2" horiz-adv-x="406" d="M18 29q0 -8 8 -10.5t13 -3.5q9 0 30 -0.5t45 -1t45.5 -1t30.5 -0.5h55q11 0 25.5 -3t26.5 -3q5 0 12 16t14.5 36.5t13.5 38.5t9 22q5 7 12.5 10l14 5.5t11.5 6.5t5 15q0 7 -3.5 13t-11.5 6t-16 -7.5t-16 -17.5t-15.5 -20.5t-14.5 -16.5q-6 -3 -17 -4.5t-16 -1.5h-194 q-5 0 -7 3.5t-2 7.5q0 7 7 16.5t17 19.5t19.5 18l14.5 12l15.5 12l25 19l25.5 19.5l17 13.5q1 1 5 3.5l4 2.5q2 2 8 6.5t8 6.5l48 43.5t41 51.5q14 23 19.5 49t5.5 53q0 29 -6.5 57.5t-20 53.5t-34.5 44.5t-50 30.5q-8 2 -23 7t-17 5h-71q-1 0 -6 -1.5t-10.5 -3.5t-10.5 -4 t-6 -3q-44 -19 -63.5 -60t-19.5 -86q0 -24 6.5 -47t19.5 -41.5t32.5 -30t45.5 -11.5q18 0 35.5 6t30.5 17t21 27t8 36q0 13 -4 27t-12 26t-20 19.5t-27 7.5t-26.5 -11.5t-11.5 -26.5q0 -14 9 -26.5t24 -12.5q13 0 23.5 7.5t18.5 7.5h2l6 -6v-14q0 -30 -21 -48t-50 -18 q-22 0 -39.5 10t-30 25.5t-19 35.5t-6.5 41q0 24 7.5 48t22.5 44t36 32.5t48 12.5q34 0 56 -13.5t34.5 -35.5t17.5 -50.5t5 -57.5q0 -37 -3.5 -67.5t-13 -58t-25.5 -53t-41 -51.5l-11 -10.5l-19.5 -18.5l-19.5 -18.5l-11 -10.5q-28 -28 -49.5 -55.5t-36.5 -63.5 q-4 -10 -8 -23.5t-4 -24.5z" />
<glyph unicode="3" horiz-adv-x="362" d="M17 150q0 -31 11.5 -56.5t32 -43.5t47.5 -28t57 -10q36 0 68.5 12t57.5 34t39.5 53t14.5 68q0 38 -15 71t-43 59q-3 3 -12.5 8.5l-20 11.5t-18.5 11.5t-8 7.5v1q1 1 4.5 3t5.5 3q2 2 12 6.5t12 6.5q32 21 47 54t15 70q0 35 -13.5 64t-36 50t-53 32.5t-63.5 11.5 q-25 0 -47 -9t-39 -24.5t-27 -37.5t-10 -47q0 -19 4.5 -38.5t14.5 -35t26 -25.5t38 -10q28 0 49.5 19t21.5 48q0 19 -10.5 37t-32.5 18q-16 0 -23.5 -11t-7.5 -26t6 -22.5t21 -7.5q7 0 12.5 2.5t11.5 2.5q0 -19 -12 -30.5t-33 -11.5q-18 0 -31.5 7.5t-22 20t-13 28.5 t-4.5 32q0 20 7.5 38.5t20.5 32.5t30.5 22.5t38.5 8.5q32 0 49.5 -14t26 -36t10.5 -48t2 -51v-28q0 -14 -1.5 -29t-6.5 -29t-14 -25q-2 -3 -7 -8l-5 -5h-80q-13 0 -30 -8t-17 -23q17 0 33 6.5t34 6.5q38 0 61.5 -14.5t36 -38.5t16.5 -54.5t4 -62.5q0 -26 -4 -52t-15 -47 t-30.5 -34t-50.5 -13q-25 0 -49 10.5t-42.5 27.5t-30 40t-11.5 49q0 19 6.5 36t18.5 30t28 20.5t35 7.5q16 0 31 -5t27 -15t19 -23.5t7 -31.5q0 -5 -2 -12t-5 -13.5t-8 -11.5t-11 -5h-2q0 1 -1.5 2t-1.5 2q3 17 -3.5 33t-26.5 16q-17 0 -24 -11.5t-7 -26.5q0 -20 12 -29.5 t31 -9.5q31 0 46 22.5t15 51.5q0 19 -7.5 35t-20 27t-29.5 17.5t-35 6.5q-24 0 -43 -9.5t-32 -25t-19.5 -36.5t-6.5 -43z" />
<glyph unicode="4" horiz-adv-x="412" d="M17 212q0 -3 0.5 -5t5.5 -2h181l3 -3q1 0 2 -15.5t1 -24.5v-22v-20t-0.5 -17.5t-1 -18.5t-1.5 -23q0 -7 -7 -15t-11 -9l-62 -13q-3 0 -3 -4v-5v-6q12 0 42 -0.5t64 -1t64 -1t42 -0.5h21h17q11 0 11 11v4t-3 3q-14 2 -27.5 3t-24.5 5t-18.5 11.5t-9.5 23.5v51v50 q0 7 1 18.5t2 12.5l3 5h77q5 0 7 5t2 9q0 3 -0.5 6.5t-5.5 3.5h-80l-3 5v46q0 66 1.5 132t1.5 132q0 3 -1 6t-5 3t-4 -1t-2 -6q-9 -21 -17.5 -38t-17.5 -32.5t-20.5 -31t-27.5 -32.5q-3 -42 -3.5 -90t0.5 -88l-3 -3l-132 -3q-1 0 -9.5 1t-8.5 6v2q43 55 78 117.5t54 130.5 q7 26 13 58.5t17 58.5q4 9 11.5 16t14.5 14.5t12.5 15.5t5.5 18h-16q-1 0 -7 -3.5t-13.5 -8.5l-15.5 -10.5t-13 -8.5q-3 -2 -13 -9.5l-21 -16.5l-21 -16.5t-13 -9.5q-8 -7 -21 -14.5t-25 -7.5q-5 0 -7.5 3.5t-5 8t-5.5 8t-9 3.5q-8 0 -13.5 -5t-5.5 -13q0 -14 6 -19t15 -6.5 t19 -3t19 -7.5t15 -20t6 -42q0 -55 -21 -110t-52 -100q-8 -11 -18 -20.5t-10 -24.5z" />
<glyph unicode="5" horiz-adv-x="399" d="M17 144q0 -24 8.5 -47.5t24.5 -42t37 -31.5t47 -17h33q47 0 82.5 17t59.5 46.5t36.5 69t12.5 84.5q0 37 -12 71.5t-34 61t-53.5 42.5t-70.5 16q-25 0 -44 -9.5t-41 -18.5h-3q-7 0 -9 6q0 4 -0.5 15.5t-0.5 15.5q0 6 0.5 17.5t0.5 13.5q0 10 1 25.5l2 30t2 25.5l1 11l3 3 l27 3l123 -3q2 0 8.5 -1.5t6.5 -6.5q0 -8 -1.5 -16.5t-1.5 -17.5q0 -11 4 -20t18 -9q11 0 16.5 6.5t5.5 17.5t-8.5 17.5t-8.5 16.5q0 9 5.5 18t10.5 16l14 17l21.5 25l21.5 24.5t14 16.5l4.5 7.5t1.5 7.5q0 7 -6 7q-3 0 -8 -3.5l-11 -8l-11 -8.5t-7 -5q-9 -5 -20.5 -5.5 t-22.5 -0.5q-12 0 -41 -0.5t-62 -1t-62 -1t-40 -0.5q-7 -6 -10 -12q-1 -14 -2.5 -47.5t-3.5 -71t-3.5 -71.5t-2.5 -47v-14t-0.5 -21.5t-0.5 -21.5v-14q9 0 19 10.5l22 23.5t28 23.5t37 10.5q35 0 53 -16t25 -40t7 -53v-56q0 -29 -1 -63t-9.5 -64t-28.5 -50t-57 -20 q-27 0 -50.5 9.5t-40.5 26t-27 39.5t-10 50q0 19 6 37t17 32t27 22.5t36 8.5q30 0 49 -20t19 -50v-1q-1 -2 -1.5 -8t-4.5 -8l-19.5 15t-22.5 7q-15 0 -23.5 -11.5t-8.5 -25.5q0 -20 11 -30t30 -10q15 0 26 7t18.5 17.5t11.5 24t4 25.5q0 19 -6.5 35.5t-18.5 29t-28.5 20 t-35.5 7.5q-26 0 -45.5 -12t-32.5 -31t-19.5 -42.5t-6.5 -46.5z" />
<glyph unicode="6" horiz-adv-x="390" d="M17 300q0 -62 15 -125t56 -111q23 -26 48 -43.5t60 -17.5q23 0 47 9.5t41 24.5q46 41 67.5 89.5t21.5 110.5q0 36 -12 72t-34 64.5t-53.5 46.5t-70.5 18q-29 0 -50 -12.5t-40 -33.5h-2q0 28 0.5 68.5t10 78.5t31.5 65t64 27q12 0 29 -3.5t32 -11t26 -18.5t11 -27 q0 -8 -5 -8t-8.5 1.5t-8.5 1.5q-19 0 -29.5 -12t-10.5 -29q0 -16 9 -26t25 -10q14 0 23.5 6.5t15 17t8 23t2.5 24.5q0 23 -11 40t-27.5 28t-37.5 16t-40 5q-39 0 -69 -18t-52.5 -47t-38 -66.5t-25 -76.5t-14 -75.5t-4.5 -65.5zM100 275q0 23 5 48t17 45.5t31 34t47 13.5 q31 0 48.5 -18t26.5 -44t11 -54.5t2 -50.5q0 -8 -0.5 -22.5t-0.5 -15.5q0 -3 -1.5 -15l-3.5 -27l-4 -30l-3 -23q-2 -15 -7.5 -31.5t-14.5 -31t-22 -23.5t-32 -9q-27 0 -45 15t-29.5 37t-16.5 47.5t-5 46.5q0 2 0.5 6.5t0.5 6.5q0 1 3 4h1h2q13 -15 30 -26t38 -11 q32 0 54 21.5t22 53.5q0 24 -11.5 42t-37.5 18q-18 0 -27.5 -11.5t-9.5 -28.5q0 -14 8 -25.5t24 -11.5q14 0 19.5 8t15.5 16l3 -3l0.5 -4t0.5 -6q0 -23 -17.5 -37t-39.5 -14q-23 0 -38.5 10.5t-25 26.5t-14 35.5t-4.5 37.5z" />
<glyph unicode="7" horiz-adv-x="386" d="M17 502q0 -8 1.5 -10.5t9.5 -2.5q11 0 19 7t15 15.5t12 16t10 8.5l31 3h177q5 0 10.5 -2t5.5 -7v-4l-1.5 -2.5t-1.5 -3.5l-36.5 -85l-34.5 -83q-22 -67 -35.5 -135.5t-13.5 -139.5q0 -14 -0.5 -37t3.5 -40l3 -3h2q6 0 13 12t10 16l9.5 9.5l13 12.5l11.5 11l6 6 q4 4 10 6.5l11.5 5t9 6.5t3.5 11q0 25 -7 52t-9 51v7q0 7 -0.5 15t-0.5 16v14q0 93 24 180t63 172q3 8 6 12.5t3 12.5v5q-1 2 -5.5 5t-6.5 3h-211l-4 5q1 2 2 7.5t2 7.5v2q0 3 -2.5 6.5t-7.5 3.5q-7 0 -17 -20.5l-22 -46t-24.5 -48.5t-24.5 -29q-7 -3 -13 -3.5t-10 -2 t-6 -5.5t-2 -13z" />
<glyph unicode="8" horiz-adv-x="374" d="M18 169q0 -16 2 -33.5t7.5 -34t15 -31t24.5 -24.5q1 -1 5.5 -3l10 -4.5t10 -5t5.5 -2.5l25.5 -16t29.5 -12h32q87 0 129 48.5t42 133.5q0 5 -0.5 19.5t-0.5 19.5q-8 32 -25.5 58.5t-41.5 48.5q-5 4 -13.5 8t-8.5 12q0 5 11 11.5t14 8.5q28 24 40 60.5t12 72.5 q0 16 -6 37.5t-17 41t-27 33t-36 13.5q-1 0 -4.5 -0.5t-4.5 -0.5q-3 -3 -3 -6v-2q0 -4 6.5 -9l14.5 -11t16.5 -11.5t11.5 -9.5q18 -25 23.5 -49t3.5 -55q0 -15 -7 -33.5t-18 -34.5t-26.5 -26.5t-32.5 -10.5h-6q-3 0 -5 1l-42.5 24.5t-36.5 24t-33.5 27.5t-34.5 34 q-8 14 -11.5 25t-3.5 27q0 18 7 35t19 30.5t28.5 21.5t35.5 8q17 0 33 -6t28 -16.5t19.5 -25t7.5 -32.5q0 -19 -11 -33t-29 -19v3v3q0 2 2.5 11t3.5 11v1q0 15 -11 22.5t-24 7.5q-17 0 -25 -11t-8 -27q0 -23 14 -33t34 -10q10 0 22 3.5t22.5 10t17.5 16.5t7 23v49 q0 16 -10.5 30t-26 23.5t-33 15t-31.5 5.5q-32 0 -54.5 -14.5t-37 -37.5t-21.5 -51t-7 -55q0 -51 18 -89.5t53 -74.5v-2q0 -1 -5 -4.5l-11.5 -8l-12.5 -8.5t-8 -5q-29 -26 -40.5 -59.5t-11.5 -71.5zM51 167q0 13 3 37.5t10.5 47.5t21.5 40.5t35 17.5q11 0 17.5 -5.5 t14.5 -10.5q7 -5 25.5 -17l39.5 -26l40 -26t26 -17q19 -17 31.5 -37.5t12.5 -46.5q0 -27 -13.5 -47t-34 -33t-45.5 -19.5t-49 -6.5q-71 0 -103 40.5t-32 108.5z" />
<glyph unicode="9" horiz-adv-x="392" d="M17 421q0 -36 9.5 -72.5t29 -66t49.5 -47.5t71 -18q32 0 55.5 11t45.5 35l3 -3v-20q0 -30 -1.5 -68t-11 -72.5t-31.5 -58t-63 -23.5q-23 0 -42.5 8t-33.5 26q-2 2 -7.5 11t-5.5 14l1 1.5t2 1.5q22 -4 39 7.5t17 34.5q0 17 -9.5 30t-29.5 13q-22 0 -33 -18t-11 -38 q0 -24 8.5 -44.5t23.5 -35.5t35.5 -23.5t44.5 -8.5q36 0 64.5 16.5t50 42.5t37.5 57.5t26 60.5q2 7 2 12t5 10q10 38 14 76.5t4 78.5q0 39 -8.5 90.5t-29 98.5t-55 79.5t-86.5 32.5q-43 0 -76.5 -22t-56 -56t-34.5 -75t-12 -78zM102 409q0 21 1 58t9 73.5t25.5 63.5t51.5 27 q26 0 43.5 -15t27.5 -37t14 -47.5t4 -45.5q-6 0 -13.5 4l-16.5 8.5t-19.5 8.5t-22.5 4q-16 0 -30 -6t-25 -16t-17.5 -24t-6.5 -30q0 -12 2.5 -24.5t8.5 -22t16 -15.5t24 -6q20 0 35 13.5t15 35.5q0 14 -10.5 25.5t-24.5 11.5q-15 0 -25 -11t-10 -26q0 -5 1.5 -9.5t1.5 -9.5 q-5 0 -8.5 6.5t-3.5 9.5v40q0 3 3 6q12 14 22 22.5t27 8.5q24 0 40 -10.5t25.5 -27.5t13.5 -37.5t4 -41.5q0 -25 -5 -49.5t-17 -43.5t-31.5 -30.5t-48.5 -11.5t-45 20t-23.5 47.5t-9.5 56.5t-2 47z" />
<glyph unicode=":" horiz-adv-x="129" d="M18 49q0 -26 16.5 -36t39.5 -10q19 0 28 16.5t9 31.5q0 21 -5.5 30.5t-28.5 16.5h-8q-20 0 -35.5 -13.5t-15.5 -35.5zM19 263q10 -15 19.5 -21t27.5 -6q45 0 45 47q0 20 -10.5 34t-32.5 14q-23 0 -36 -16t-13 -36v-16z" />
<glyph unicode=";" horiz-adv-x="134" d="M17 -104h5l49 49q5 5 12.5 16.5t14 24t11.5 24.5t5 19q0 4 -2 10.5t-4.5 13l-4.5 11.5t-1 6l-8 8l-8 8t-5.5 8.5t-7.5 6.5q-7 0 -16 -9t-16.5 -21t-13 -24.5t-5.5 -19.5q0 -6 4.5 -13l9.5 -15.5t9.5 -18.5t4.5 -22q0 -9 -5 -16.5t-11.5 -14t-11.5 -14t-5 -17.5zM25 278 q0 -23 14.5 -33t34.5 -10q21 0 32 14t11 34q0 22 -7.5 31.5t-29.5 16.5h-6q-23 0 -36 -16t-13 -37z" />
<glyph unicode="?" horiz-adv-x="342" d="M16 567q0 -5 5.5 -13.5t12.5 -17.5t14 -17t11 -11q2 -1 9 -1.5t9 -0.5q12 0 28.5 7.5t30.5 19.5t24 27t10 29q-17 0 -24.5 -5.5t-20.5 -5.5q-7 0 -12 12.5t-5 19.5q0 8 5.5 12.5t13 7t16 3t14.5 0.5q21 0 38 -10.5t29 -27t18.5 -36.5t6.5 -40q0 -15 -2.5 -30.5 t-4.5 -29.5l-19 -37.5t-20 -36.5q-12 -18 -28.5 -38.5t-31.5 -42t-25 -44.5t-10 -47q0 -4 2 -13t5.5 -18t8.5 -16t11 -7h49q6 0 12.5 6.5t11 15t7.5 17.5t3 14q0 28 -17 35.5t-41 9.5q-4 2 -7 8.5t-3 11.5q0 7 10 20.5t23.5 27.5l26.5 26.5t20 18.5l6.5 6.5t9.5 9t9 9t6 6.5 q26 28 45 67.5t19 78.5q0 37 -11.5 68.5t-37.5 57.5q-5 5 -10.5 8t-10.5 7t-9 9t-7 13q-1 0 -4 0.5t-5 0.5q-5 0 -12.5 -5t-16 -12t-16 -14t-13.5 -10q-16 -10 -37.5 -17.5t-38.5 -16.5q-10 -5 -18 -13t-16 -14q-6 -5 -14 -8.5t-15 -8t-12 -10.5t-5 -15zM116 49 q0 -26 16.5 -36t39.5 -10q18 0 27.5 16.5t9.5 31.5q0 21 -5.5 30.5t-28.5 16.5h-8q-20 0 -35.5 -13.5t-15.5 -35.5z" />
<glyph unicode="A" horiz-adv-x="708" d="M17 -8q0 -28 19.5 -40.5t45.5 -12.5q59 0 108 31t87 73h5q5 0 6 -0.5t5 -5.5q9 -11 14.5 -18.5t9 -15t5 -17t1.5 -23.5h7q7 0 12.5 5t10 12t8 13.5t5.5 9.5l6 6q1 1 6.5 7t11 13t10.5 12.5t6 7.5q4 4 11 10l14 12t12.5 11.5t5.5 10.5q0 9 -6 9q-8 0 -20 -10t-17 -15 l-10.5 -10.5t-10.5 -11.5h-2q-1 0 -6 6l-11 13.5t-10.5 14.5t-4.5 9q0 5 6 9q2 2 10.5 8l11.5 8q2 1 8 5t12 7.5l11.5 7t7.5 4.5q2 2 11.5 6t13.5 6q3 2 9 4.5l6 2.5l6 -7q7 -49 21.5 -89.5t46.5 -78.5q3 -3 6 -3h1q6 0 12.5 9t12.5 20.5l11.5 22.5t8.5 15q14 20 31.5 41.5 t35.5 38.5h2q6 0 10 -5.5t6 -12.5t3 -14t1 -11q0 -26 -9.5 -46t-21.5 -43q-23 -26 -49 -36t-59 -10q-23 0 -44 5t-44 5q-11 0 -25 -3.5t-26 -10.5t-20.5 -17.5t-8.5 -24.5q0 -11 6 -18t14.5 -11t19 -6t19.5 -2v-1q0 -2 -8 -9t-8 -17q0 -7 3.5 -11.5t7.5 -9t7.5 -9.5t3.5 -13 h15q2 0 2.5 7t0.5 9q0 5 -3 7.5t-6.5 4t-6.5 4t-3 7.5q0 6 5 9.5t10.5 7t10.5 7.5t5 12q0 9 -9 14.5t-17 5.5q-9 0 -17.5 -3t-17.5 -3q-5 0 -8.5 3.5t-3.5 8.5q0 14 16 27t30 13q20 0 39 -6.5t39 -6.5q33 0 65 9.5t57.5 28t41 46.5t15.5 65q0 19 -6.5 37t-14.5 35 q0 1 -0.5 1.5l-0.5 0.5l1 1q1 2 6 6.5t6 6.5v2q0 6 -3 6.5t-8 0.5t-9 -1.5t-9 -1.5q-7 0 -17.5 8t-14.5 10q-24 11 -43 14t-46 1l-3 4l-0.5 4t-1 10l-1 12t-0.5 10v17q0 19 0.5 32.5t2.5 36.5q0 3 3 3h1q10 0 18.5 -1.5t18.5 -1.5h23q7 2 12.5 6.5t11 9.5t11 8.5t13.5 3.5 q6 0 10 -6q-1 -9 -1 -17t1.5 -14t6.5 -9.5t15 -3.5q9 0 12 4t4 8.5t1.5 8.5t5.5 4q7 0 10.5 -9t13.5 -9q8 0 8 4q0 2 -4 6t-9.5 8t-10.5 7t-8 3q-7 0 -9.5 -3.5t-4 -7.5t-3.5 -7.5t-6 -3.5q-7 0 -9 6q4 17 -5 34.5t-29 17.5q-10 0 -17 -3.5t-12.5 -7.5l-11.5 -8t-14 -5 q-2 -1 -13.5 -2t-17.5 -1h-2q-2 0 -9 2t-7 7v110l23.5 35.5t23.5 40.5t18.5 43t7.5 43q0 36 -18 61.5t-56 25.5q-24 0 -43.5 -14t-35.5 -30h-3q-8 0 -20 10.5t-20 14.5q-28 13 -59.5 19t-62.5 6q-45 0 -89.5 -15.5t-80 -44t-57.5 -68.5t-22 -89v-1q1 -6 2 -16l2 -19.5 t1.5 -17t0.5 -8.5q2 -10 7.5 -20t5.5 -19v-1l-16 -16v-4q0 -2 0.5 -5t4.5 -3h2q1 1 8.5 3.5t9.5 2.5h1h2q10 -12 19 -21t18 -16t19 -14l24 -16q3 -2 13.5 -6t22.5 -7.5t21.5 -7t9.5 -4.5v-10q0 -31 -14 -62t-29 -56q-5 -8 -13 -15t-11 -16q-2 -7 0 -9t-6 -6l-43.5 -22 t-38.5 -25.5t-27.5 -34.5t-10.5 -49zM23 -1q0 22 10 37.5t25.5 26.5t34 18.5l34.5 13.5h23q31 0 59 -6.5t53 -24.5q3 0 3 -3v-1v-2q-18 -19 -38 -37.5t-42 -33.5t-46.5 -24t-52.5 -9q-11 0 -22 2t-20 7.5t-15 14t-6 21.5zM58 469q0 49 14 93t42 77t69 52.5t95 19.5 q40 0 78.5 -13.5t64.5 -44.5q1 -1 1 -5q0 -19 -11 -41.5t-11 -49.5v-5q0 -4 1 -14t2 -21.5t2 -21.5t1 -14q5 -17 14 -34l17 -33v-2q0 -5 -4.5 -6.5t-8.5 -1.5q-20 0 -31 11t-21 26l-1 0.5t-2 0.5q-5 0 -7 -5.5t-3 -12.5t-1 -14q0 -6 -1 -8q-6 -23 -14 -41t-26 -33h-1h-2 l-1.5 1t-1.5 2q14 36 21 69t7 71q0 23 -3.5 45t-12.5 45q-4 11 -12.5 25t-8.5 25v5q10 12 18 25.5l16 26.5v5q0 3 -1.5 8.5t-6.5 5.5q-6 0 -10 -5.5t-7.5 -12t-6.5 -13t-5 -9.5q-4 -6 -13 -17l-18 -22.5l-17 -21.5t-10 -13l-10.5 -10.5l-18 -18l-19 -19t-14.5 -13.5 q-2 -2 -7 -6.5l-11 -9.5l-12 -10t-9 -8q-12 -9 -27 -19t-26 -18q-3 -3 -6 -3t-3 3v22q0 46 21.5 82t61.5 59q10 5 11.5 5.5t12.5 0.5q14 0 18.5 -6.5t12.5 -6.5q1 0 2 0.5l1 0.5q4 4 12.5 11.5l17 15.5t14.5 17t6 16q0 6 -4 8.5t-10 4t-12 1.5h-10q-21 0 -42.5 -8t-38.5 -20 q-26 -18 -42.5 -36t-26.5 -38.5t-14.5 -45t-5.5 -55.5h-5zM90 403q0 1 8 9.5t18.5 17.5t20.5 16.5t15 7.5q8 0 15.5 -5.5t13.5 -13.5t10.5 -16t6.5 -14l7 -24t5 -19.5t2.5 -19.5t0.5 -25q-14 0 -34.5 7.5t-40.5 19.5t-34 27.5t-14 31.5zM169 133l0.5 0.5t0.5 1.5q9 12 22 22 t24 21q25 26 44.5 56.5t35.5 62.5q7 10 19.5 13t23.5 3t18 -5.5t12 -11.5l9.5 -11.5t12.5 -5.5h6q1 4 4.5 15.5t4.5 15.5q1 3 3.5 8.5t4.5 12t4 11.5t3 7l9 18t10 19q2 3 5.5 5t6.5 2t6 -1t3 -6v-196q0 -3 -8 -5.5t-10 -3.5q-2 -2 -10.5 -5l-11.5 -4l-88 -55q-1 -1 -3 -1h-4 h-5t-4 1q-1 0 -6.5 1.5t-11.5 4t-11.5 4.5t-6.5 2q-2 0 -8 0.5t-14 1l-15.5 1t-11.5 0.5h-13t-19 0.5t-19 0.5h-12zM222 224v3q0 5 4 13.5t6 13.5q1 4 3 10.5l4 12.5t3.5 10l1.5 4l6 6l3 -3q0 -1 -2.5 -8.5l-6.5 -19t-6 -18.5q-2 -5 -6 -12.5t-10 -11.5zM222 518v2v1l16 15 l1 1q5 0 10 -8.5t7 -13.5q9 -26 14 -51t5 -52v-19t-0.5 -13t-2 -13t-4.5 -18q-2 -7 -5 -18.5t-4 -11.5h-3q0 12 0.5 25t5.5 24v23q0 19 -0.5 38t-8.5 37q-7 16 -15 27t-16 25zM418 544v32q0 1 1.5 6t3 12l3 14t2.5 11q1 6 1 8t4 2q5 0 7 -4q17 -31 21 -65.5t4 -69.5 q0 -17 -0.5 -32t-3.5 -32h-3q-5 0 -9 6q-20 29 -25.5 53t-5.5 59zM455 668v2q0 6 7.5 12t17 10.5t19.5 7t15 2.5q29 0 43.5 -24.5t14.5 -51.5q0 -12 -4 -29t-11 -34.5t-15.5 -33t-18.5 -23.5q-3 0 -3 3q-7 26 -11 49t-17 49q-1 2 -6 10.5l-10.5 17.5t-11 17t-6.5 10 q0 1 -1.5 3t-1.5 3zM534 173q0 2 0.5 7t0.5 7q1 3 3 3h4q4 0 19.5 -1.5t32 -5t29.5 -9.5t13 -15q0 -5 -8 -16t-19 -22t-22 -20t-16 -9q-10 0 -17 10.5t-11.5 24.5t-6.5 27t-2 19z" />
<glyph unicode="B" horiz-adv-x="691" d="M17 8q0 -18 8.5 -31t22 -20.5t29.5 -11t32 -3.5q22 0 44 7.5t42 19.5t38.5 27l34.5 29h2h1q2 0 6.5 -2.5t6.5 -3.5q4 -2 14.5 -5t12.5 -4q18 -4 30 -5t29 -1h15q2 0 11 1t20 2.5l22 3t17 2.5q21 3 40 13t36 24t31.5 30l27.5 31q8 10 18 10q9 0 19 -5.5t18 -13.5t13.5 -18 t5.5 -19v-52q0 -1 -2.5 -8t-4.5 -10q-9 -23 -26 -38.5t-37.5 -24.5t-44 -13t-46.5 -4t-43 7.5t-40 17t-40 17t-43 7.5q-21 0 -36 -11t-15 -34q0 -18 12 -24.5t26.5 -8.5t26.5 -2.5t12 -6.5q0 -5 -5 -7t-10.5 -3.5t-10.5 -5t-5 -12.5q0 -2 2 -7t4.5 -10t5 -8.5t4.5 -3.5 q6 0 6 8v4q-1 2 -6 8t-6 8v1q0 5 5.5 6.5t11.5 2.5t11.5 4t5.5 11q0 11 -5 16.5t-12.5 7t-17 1t-18.5 -0.5q-5 2 -7 4t-2 8q0 11 6 18t17 7q16 0 35 -4q6 -2 21 -6.5t31.5 -10t31.5 -10t21 -6.5q8 -3 11 -3.5t11 -0.5q36 0 69 7t58.5 23.5t40.5 43t15 66.5q0 23 -6 42 t-22 36q-3 3 -9 7.5t-12 9.5t-11 10t-5 10q0 14 11.5 30.5t16.5 30.5q8 28 13.5 53.5t5.5 54.5q0 31 -11.5 56t-31 44t-45 31.5t-53.5 18.5q-1 0 -1 3t5 10.5t11.5 15.5l12.5 15.5t8 10.5q11 18 18 35.5t7 38.5q0 26 -14 42.5t-31 28t-31 19.5t-14 18q0 7 7 9.5t7 8.5 t-7 8.5t-12 2.5t-8 -0.5t-7 -2.5t-11 -6.5l-14 -9l-12 -8t-6 -4.5l-193 -171q-22 -14 -41.5 -28t-41.5 -27l-12 -6l-16.5 -8.5t-14.5 -8t-6 -4.5q0 -6 3 -7h11q12 0 22.5 6t21.5 6q3 0 3 -3v-27q1 -7 2 -20t1 -14l43 -104q7 -17 8.5 -29.5t1.5 -29.5q0 -23 -7.5 -46 t-26.5 -39l-0.5 1t-0.5 2q0 7 3 14t7 13v26q0 21 -5 39.5t-13 35t-18.5 32.5l-21.5 33q-29 43 -48.5 87t-19.5 97q0 12 0.5 26t3 28t7.5 27.5t14 22.5q15 17 25 25.5t31 8.5q13 0 23 -7.5t19.5 -16t19.5 -16t24 -7.5q35 0 58.5 23.5t23.5 58.5q0 8 -1.5 18t-6 18.5 t-11.5 14.5t-18 6t-20.5 -3t-9.5 -17q8 0 12.5 4t13.5 4q16 0 23.5 -12t7.5 -26q0 -17 -5.5 -25t-22.5 -8q-8 0 -16 5t-15.5 11.5t-13.5 13.5t-10 10q-8 7 -20 8t-23 1q-5 0 -7.5 -0.5t-7.5 -2.5q-24 -11 -45 -29.5t-36 -42t-23.5 -50t-8.5 -54.5q0 -38 8.5 -71t23.5 -63.5 t34.5 -59.5l40.5 -59q11 -20 18 -42.5t7 -45.5q0 -35 -13 -50.5t-32.5 -23t-42 -14t-41.5 -23.5q-21 -20 -32 -35.5t-11 -43.5zM38 2q0 32 23.5 55.5t55.5 23.5q19 0 39.5 -4t38.5 -12q7 -3 18.5 -9l19 -10t8.5 -5v-7l-4 -4t-10 -8.5l-12.5 -9.5l-10.5 -8q-25 -17 -49.5 -30 t-54.5 -13q-9 0 -20 1.5t-20.5 6t-15.5 12.5t-6 21zM194 126q0 4 4 7q1 1 7 5l13 8.5t12.5 8.5t7.5 5l12 12l30.5 42.5t28 46.5t20 49.5t7.5 51.5v166q0 37 14.5 63t40.5 50q6 6 8.5 8t7.5 2q6 0 5 -0.5t3 -3.5q17 -13 36.5 -21.5t36 -18t27.5 -24.5t11 -42q0 -17 -8 -31 t-17 -28l-10.5 -10.5l-16.5 -16l-17 -15.5t-11 -10l-38.5 -33t-41 -39t-33 -45t-13.5 -50q0 -18 6 -34.5t17 -30t26.5 -21.5t35.5 -8q19 0 37 11t31 27.5t21 37t8 38.5q0 19 -9 31t-16 30q-3 7 -3 16t-11 9q-1 0 -12 -11l-25.5 -25l-28.5 -27t-21 -17q-4 -2 -4 -7 q0 -3 6 -7.5t10 -4.5h33q6 0 10.5 -5t7.5 -11.5t5 -13.5t2 -11q0 -5 -3.5 -11.5t-8 -12.5t-10 -10t-9.5 -4h-36q-8 0 -14 8t-9.5 18.5t-5.5 21t-2 15.5q0 22 10 47t27 47t38.5 36.5t44.5 14.5q29 0 54 -16.5t43 -41t28 -53.5t10 -54q0 -7 -0.5 -20t-3 -25.5t-8 -22 t-14.5 -9.5q-11 0 -22 1.5t-22 1.5q-16 0 -33.5 -3t-32.5 -9q-9 -4 -15 -10t-17 -6q-5 0 -10 2t-11 2h-11q-5 -4 -7.5 -9.5t-7.5 -9.5q-26 3 -43 -3t-37 -21h-1h-2l-54 20t-56 10q0 1 -0.5 2zM240 454q0 20 2.5 40t22.5 31l3 -3v-2v-1q0 -2 -1 -5t-2 -5v-30q0 -43 8 -83.5 t8 -83.5v-29q-1 -2 -3 -12.5t-4 -15.5q0 -2 -3.5 -12.5t-8.5 -10.5q0 17 1.5 33t1.5 32q0 21 -4 40.5t-8.5 39l-8.5 38.5t-4 39zM332 79q0 4 4.5 7.5t10.5 6.5t12 4.5t9 1.5q6 0 11.5 -1.5t11.5 -1.5q9 0 13 3.5t6 7l4 7t7 3.5q6 0 11 -1.5t11 -1.5q10 0 19 3.5t17.5 8 t17.5 8.5t19 5q3 0 11.5 0.5l17.5 1l17.5 1t11.5 0.5q0 -11 -10.5 -26.5t-25.5 -30t-30.5 -25.5t-24.5 -13q-1 0 -5.5 -1t-10.5 -2l-12 -2t-9 -1h-3h-3q-4 0 -11.5 1.5l-15 3t-14 3t-8.5 1.5q-2 1 -14.5 4t-16.5 5q-6 2 -17 7.5t-11 12.5z" />
<glyph unicode="C" horiz-adv-x="607" d="M17 301q0 -59 17 -115t50 -100t82 -71t114 -27q48 0 95 17.5t86 44.5q4 3 9 8.5t10.5 11t11.5 10t11 4.5q4 0 7 -6t4.5 -14t2 -16t0.5 -11q0 -26 -8.5 -48t-24 -38.5t-37 -26t-47.5 -9.5q-16 0 -30.5 5l-29 10.5t-30 10.5t-31.5 5q-17 0 -31 -8t-14 -26q0 -8 5 -12t5 -11 v-2q-3 0 -3 -3h-2q-6 0 -12.5 3.5t-14.5 3.5q-7 0 -9.5 -2t-3.5 -5t-2 -6.5t-5 -5.5q-15 1 -24 0.5t-15 -4.5t-11 -11t-12 -19q-3 -5 -10 -5q-6 0 -6 -8q13 0 18.5 5t8.5 11.5t7 12t13 6.5h34q5 3 8.5 13.5t8.5 10.5h1q2 -1 11 -4.5t11 -4.5h4q6 0 11.5 3.5t5.5 10.5 q0 8 -6.5 13t-6.5 13q0 5 7 9h17q16 0 30.5 -5.5t28 -11.5t28 -11.5t32.5 -5.5q31 0 57 12t45 32.5t30 47.5t11 57v23q-5 8 -9 17.5t-4 19.5v3l19 23.5t23.5 31t20 32t8.5 26.5q0 6 -5 6h-1q-3 0 -3 -3q-10 -23 -21.5 -43t-27.5 -40q-1 0 -4 -3.5t-7 -7.5t-8 -7t-7 -3h-2 q-14 8 -24.5 12.5t-24.5 12.5q-4 2 -7 6.5t-8 5.5h-22q-2 7 -7.5 11t-13.5 4q-5 0 -10 -1.5t-10 -1.5t-14 0.5t-9 8.5q0 7 6.5 15.5t8.5 12.5q10 17 16 37t6 40q0 44 -21 79.5t-44 70.5q-9 14 -23 32t-14 36q0 10 11.5 19t27 15.5t31 10t23.5 3.5q2 0 8 -1t12 -2.5t11 -4 t5 -6.5t-6.5 -14t-8.5 -15q-10 -22 -16 -39.5t-6 -41.5q0 -36 22 -62t60 -26q14 0 29 6t27 16t20 23t8 28q0 44 -41 44q-9 0 -15.5 -3.5t-12 -7.5l-10 -7.5t-9.5 -3.5q-7 0 -8.5 2t-1.5 8q0 8 5.5 12.5t11.5 8.5t11.5 9.5t5.5 14.5q0 5 -2.5 7t-6 2.5t-6.5 2t-4 4.5 q-2 14 -5 22.5t-10 20.5v1v2q17 18 42 38t47.5 42.5t38.5 47.5t16 53v18q-5 8 -10 13.5t-15 5.5t-17 -8t-7 -17q0 -8 5 -9.5t10.5 -2.5t10.5 -5t5 -17q0 -4 -2 -10t-5.5 -12t-8 -10.5t-9.5 -4.5q-4 0 -10 6t-12 14t-12.5 15.5t-11.5 10.5q-38 25 -79 25t-79.5 -12t-72 -33 t-61 -51t-45.5 -66l-24 -51t-19 -54q-5 -23 -5.5 -47.5t-0.5 -48.5q0 -89 37.5 -160t121.5 -105l30.5 -12.5t32.5 -6.5q8 0 17 4v1v2l-3 3q-17 0 -29 3.5l-29 8.5q-5 2 -6 2t-1 4t4 6q2 2 12 8t12 8q3 2 12.5 10t12.5 11h1q8 0 16 -4.5t16 -4.5q6 0 12 1.5t12 1.5q4 0 6 -3 t3.5 -6.5t3.5 -6.5t7 -3t8.5 2t7.5 2q1 0 10 -4.5t19.5 -10.5t19 -11.5t8.5 -6.5v-1l-6.5 -6.5l-5.5 -5.5q-28 -19 -55.5 -25t-60.5 -6h-33t-32 3q-51 9 -91 37t-68.5 68t-43.5 88t-15 97q0 32 4 65.5t13 65.5t23.5 61.5t36.5 53.5l12.5 12.5t7.5 15.5h-11l-5 -4.5 t-11.5 -11l-13 -13.5l-10.5 -11q-52 -58 -79.5 -134.5t-27.5 -153.5zM142 342q0 73 32 140t85 116q1 1 4.5 3.5t4.5 2.5v-1q0 -3 -3 -9t-7 -12.5t-7 -12.5l-4 -8q-11 -21 -16.5 -41.5t-5.5 -43.5q0 -11 2 -22t2 -22q0 -2 -0.5 -5t-0.5 -4q0 -2 -1.5 -8t-4 -13t-4.5 -13.5 t-2 -7.5q0 -2 -0.5 -15.5t-0.5 -20.5q0 -4 0.5 -17.5t0.5 -17.5q8 -35 26.5 -64t44.5 -52q3 -4 13.5 -11t10.5 -12q0 -7 -5 -15t-12 -14.5t-15.5 -11t-14.5 -4.5q-19 0 -38 16.5t-35.5 39t-27.5 46.5t-14 39q-4 21 -5.5 38t-1.5 37zM225 350q0 4 1 12.5t2.5 17.5t4.5 15.5 t6 6.5q5 0 8.5 -8t5.5 -10l24.5 -38.5t23 -39.5t17 -41.5t6.5 -44.5q0 -6 -1 -19.5t-10 -13.5q-2 0 -2 1q-38 28 -62 70.5t-24 91.5zM277 549q0 21 9 39.5t24 31.5t34 20.5t39 7.5q11 0 26.5 -2.5t30 -8.5t24.5 -15.5t10 -24.5v-5l-21.5 -21.5t-24.5 -21.5h-2 q-14 0 -28.5 4.5t-28.5 4.5q-17 0 -39.5 -9t-36.5 -18q-1 -1 -4.5 -5t-4.5 -5h-2h-2q-2 9 -2.5 14.5t-0.5 13.5zM390 420q0 5 3.5 22t9.5 35.5t14 33t17 14.5q2 0 6 -1.5t4 -5.5v-27l2 -1t3 -2q6 -4 9.5 -4.5t11.5 -1.5q0 -1 0.5 -1.5l0.5 -0.5q0 -8 -5.5 -11.5t-12 -6.5 t-12 -8.5t-5.5 -17.5q0 -2 0.5 -6.5t0.5 -6.5q7 -9 19 -9q7 0 12 2t12 2q11 0 11.5 -10t0.5 -18q0 -22 -16 -32.5t-36 -10.5q-13 0 -22.5 7.5t-15.5 19t-9 24t-3 22.5z" />
<glyph unicode="D" horiz-adv-x="756" d="M17 314q0 -13 9 -15t19 -2q7 0 11 5t6.5 10.5t6 10.5t10.5 5q4 0 7 -0.5t5 -5.5q-1 -5 -1.5 -16.5t4.5 -17.5q1 -2 8.5 -10t13.5 -8q38 0 55.5 25.5t17.5 59.5q0 23 -7 42t-15 36.5t-15 35.5t-7 40q0 51 24 90t62 65t84 39.5t91 13.5q2 0 9 -0.5l14.5 -1l15 -1t10.5 -0.5 q2 0 7.5 -1t7.5 -5q-4 -7 -7.5 -7.5t-10.5 -5.5q-4 -2 -11.5 -7l-15.5 -10.5l-14.5 -10t-7.5 -5.5q-3 -2 -10 -8.5l-15.5 -14l-16 -14t-10.5 -9.5l-19.5 -19l-33 -33l-32.5 -33l-19 -19q-5 -5 -15.5 -14t-12.5 -11t-13.5 -7.5t-16.5 -7.5q-8 -3 -10.5 -2t-2.5 -5q0 -9 8 -9 q3 0 8 2.5t10 5.5l10 6t7 5l3 -3q3 -42 16 -79.5t39 -70.5q-2 -4 6 -12l10 -10q11 -18 14.5 -36.5t3.5 -40.5q0 -12 -2 -26.5t-10 -24.5q-5 -5 -12 -9t-7 -11t4 -8h13q28 0 57 13.5t54 35t44.5 47.5t30.5 51q8 20 10 40t2 41q0 23 -3.5 44t-3.5 43q0 25 12.5 48t41.5 23 q8 0 19 -4t11 -15q0 -9 -3.5 -17t-3.5 -16t5.5 -15t14.5 -7q2 0 2 1q4 1 10.5 5t9.5 4q4 0 4.5 -3.5t0.5 -8.5q0 -4 1.5 -7.5t7.5 -3.5v26q0 5 -5 7t-9 2q-7 0 -10.5 -5t-10.5 -5q-5 0 -8.5 3t-3.5 8q0 8 3.5 16t3.5 16q0 17 -10 24.5t-25 7.5q-10 0 -20.5 -1.5t-18.5 -8.5 q-27 -25 -37 -50t-11.5 -51t-1 -55t-5.5 -61q0 -1 -2 -8t-5 -16.5l-6 -19l-5 -15.5q-4 -12 -15.5 -28.5t-26.5 -31.5t-31.5 -25.5t-30.5 -10.5q0 15 11.5 24t21.5 23l6.5 10l9 14.5l8 13.5t4.5 8q11 26 16.5 54t5.5 55q0 4 -0.5 11.5t-0.5 8.5q-1 7 -3 25t-4 38t-4.5 38 l-3.5 25q-1 16 5 48.5t18.5 64.5t31.5 56t46 24h3q3 -2 11 -5t10 -5q39 -21 66 -53t45 -72q6 -15 12.5 -34t14.5 -34q9 -36 12.5 -70.5t3.5 -71.5v-32q0 -2 -1.5 -9t-3 -16.5l-3 -18.5t-2.5 -14l-6 -27t-11 -36t-16.5 -31t-21.5 -13q0 -3 2 -5.5t2 -5.5q0 -1 -0.5 -1.5 l-0.5 -0.5q-2 -5 -10.5 -15t-10.5 -12q-29 -32 -64 -54.5t-79 -22.5q-5 0 -19 3.5t-28.5 9t-25.5 12t-11 12.5q0 3 6.5 8.5t14.5 11t16.5 9.5t11.5 4h37q6 0 8.5 4.5t4 9.5t3.5 9.5t7 4.5t10 -1.5t10 -1.5q14 0 24.5 8.5t24.5 9.5q3 0 11.5 0.5l17.5 1l17.5 1t11.5 0.5v2v1 q0 3 -3 3q-4 1 -18 2t-19 2h-5q-17 0 -31.5 -9.5t-30.5 -9.5q-5 0 -9.5 2t-9.5 2q-6 0 -9.5 -3.5t-6 -8l-5 -9t-6.5 -7.5q-19 1 -30 -1.5t-19.5 -7.5t-18 -12.5t-24.5 -15.5h-1q-14 0 -24 11t-21 16q-23 13 -47 20.5t-52 7.5q-23 0 -55.5 -9t-62 -25.5t-50.5 -40t-21 -51.5 q0 -18 8.5 -30.5t21.5 -20t29 -10.5t31 -3q37 0 71.5 12t65.5 31q4 3 11 9l14.5 12t14.5 11t10 5h2q1 0 6 -2t10.5 -4t10.5 -4t7 -3q17 -5 34.5 -7t35.5 -2q33 0 66 11.5t63.5 29t58 39.5l51.5 43h5q10 0 19.5 -11t16 -25.5t10.5 -29.5t4 -23q0 -28 -12.5 -48t-32.5 -32.5 t-44 -18t-48 -5.5q-33 0 -63.5 8l-62.5 16q-18 5 -35 10.5t-35 5.5q-13 0 -27 -1t-26 -5.5t-20 -14t-8 -25.5q0 -20 15.5 -30t34.5 -10q14 0 26.5 4.5t26.5 4.5q4 0 6 -3t2 -6v-3l-15 -15q0 -1 -1 -1v-1q0 -11 11 -17.5t21 -6.5q0 7 -2 9.5t-4.5 3.5l-6 2.5t-6.5 6.5 q9 4 11 10.5t2 14.5q0 2 -0.5 5t-0.5 4l-6 6q-1 0 -4.5 0.5t-5.5 0.5q-13 0 -24.5 -3.5t-24.5 -3.5q-8 0 -17.5 2t-9.5 13q0 12 7 19.5t17.5 12t22.5 6.5t21 2q17 0 36.5 -3.5t36.5 -8.5q9 -3 18 -8t19 -7q22 -5 34 -6t33 -1q30 0 58.5 7t50.5 22.5t35 39.5t13 57 q0 20 -6 40t-22 34q-3 2 -13.5 10.5t-14.5 13.5v2v1q39 50 58 107.5t19 120.5q0 28 -1.5 58.5t-13.5 56.5q-2 5 -7.5 16l-11.5 23.5l-11 23l-7 14.5q-5 9 -13 22t-15 21q-52 58 -119 82.5t-143 24.5q-41 0 -83.5 -11t-81 -31.5t-69.5 -50.5t-49 -69q-1 -2 -3 -6.5t-4 -10.5 t-4.5 -11.5t-3.5 -8.5q-6 -14 -11 -32t-5 -32q0 -27 13.5 -45.5t29.5 -34l29.5 -29.5t13.5 -30q0 -15 -9.5 -30t-26.5 -15q-20 0 -24 10t-4.5 22t-4 22t-21.5 10q-8 0 -11.5 -2.5t-5.5 -6l-4.5 -8t-7.5 -7.5q-5 0 -15 0.5t-16 -3.5v-2zM29 20q0 13 10 27t24.5 26t30 20 t27.5 8h61q6 0 22.5 -8.5t34 -19t31.5 -20.5t14 -12v-1q-9 -11 -23 -20.5t-29.5 -17.5t-31 -14.5l-27.5 -11.5l-27.5 -6.5t-28.5 -3.5q-12 0 -27.5 2t-29 8t-22.5 16.5t-9 27.5zM293 484v4q0 28 8 50.5t28 40.5q1 -1 1 -5q0 -13 -2 -25t-2 -26q0 -28 6 -54l12.5 -52 t12.5 -52.5t6 -53.5q0 -21 -4 -38t-11 -37l-6 -15h-4q0 18 5 36t5 37q0 15 -1.5 32.5t-7.5 31.5l-7.5 15.5l-11 23.5l-11 23l-7.5 15q-1 3 -2 10t-2.5 14.5l-3 14.5t-1.5 10z" />
<glyph unicode="E" horiz-adv-x="696" d="M17 11q0 -16 7 -28t18.5 -20.5t26 -13t28.5 -4.5q21 0 39.5 4t36 9.5t35 12t36.5 11.5l55 37h5h7q2 -1 11 -5t11 -4q3 -2 10.5 -4.5l15.5 -5l14.5 -4.5t8.5 -2q21 -5 33.5 -5.5t32.5 -0.5q54 0 100 18.5t88 52.5h3q5 0 7.5 -6.5t4 -15.5t1.5 -18v-11q0 -26 -13.5 -46.5 t-34 -34.5t-45.5 -21t-47 -7h-21t-20 3q-27 15 -60 30.5t-65 15.5q-17 0 -29 -12t-12 -29q0 -5 2.5 -8t6 -5.5t6 -6t2.5 -9.5h-48l-3 -3q1 -3 1 -11q0 -9 -1 -11q0 -1 -4 -4.5t-5 -4.5l-1 -5q13 0 16 4t3 9v10t7 7q5 -1 20 -1t20 1q12 0 12 12q0 5 -3.5 8.5t-7.5 6t-7.5 5 t-3.5 6.5t5.5 6.5t12 3.5t12.5 1h10q19 0 36 -5t33.5 -10.5t34 -10.5t37.5 -5q30 0 59.5 8t53.5 24.5t38.5 42t14.5 59.5q0 14 -6.5 27.5t-6.5 27.5v1q1 2 5 8t5 7q1 3 4.5 10l4.5 9q5 14 7 27.5t2 28.5q0 42 -24 71t-66 29q-25 0 -47.5 -12t-22.5 -40v-7q0 -4 1 -5 q3 -7 5.5 -8.5t7.5 -1.5q6 0 13.5 2t7.5 10t-6.5 13t-6.5 11q0 18 16 23.5t31 5.5q20 0 35 -8t25.5 -21.5t16 -30.5t5.5 -36q0 -5 -2.5 -17.5t-6.5 -25.5t-9.5 -23t-12.5 -10h-3q-2 1 -9 6t-9 6q-3 1 -8.5 4t-12 6l-12 5.5t-7.5 3.5q-17 6 -35.5 7.5t-36.5 1.5 q-35 0 -66.5 -10t-63.5 -24q-2 0 -5 -1t-5 -2h-1h-2l-2.5 1.5t-3.5 1.5q-5 2 -16.5 6l-24.5 8.5t-25 8t-17 5.5q-3 1 -3 6v3q27 28 45.5 54t29.5 54t14.5 60t2.5 71q11 19 24 36t40 17q7 0 16.5 -3t18.5 -8.5t15 -13t6 -16.5v-6q-20 -26 -36.5 -54.5t-16.5 -61.5 q0 -12 2 -20t16 -8q5 0 11 1.5t6 9.5q0 6 -8 16t-8 22q0 32 22 58t48.5 49.5t48.5 46.5t22 50q0 9 -2 15t-11 6q0 -6 2 -11t2 -10q0 -8 -5 -22t-15 -14q-8 0 -15 6.5t-14 9.5q-23 10 -51 10q-26 0 -47 -10t-40 -27q-3 -3 -8.5 -10t-10.5 -14.5t-10 -13.5t-6 -6 q-2 0 -6.5 8.5t-9.5 20l-9.5 22t-6.5 14.5l-8 15.5l-8 15.5v3q0 5 3 6q25 2 46 12.5t36 27t23.5 38.5t8.5 46q0 23 -11.5 40t-22.5 35q1 3 6 3q35 0 60.5 -22t25.5 -59q0 -11 -6.5 -20l-14 -18.5t-13.5 -20t-6 -23.5q4 0 9 6t10 14l10 16t8 11q12 13 32 26.5l39.5 28 t33.5 31.5t14 39q0 6 -4.5 14t-11.5 8h-2q-1 -1 -3.5 -2l-2.5 -1l-0.5 -0.5t-0.5 -1.5l1 -1q1 -2 6 -6.5t6 -6.5v-2q0 -6 -5 -18.5t-13 -12.5q-5 0 -7.5 4.5t-5.5 7.5q-2 3 -9 10t-9 8q-14 11 -31.5 16.5t-34.5 5.5q-24 0 -48.5 -5.5t-47.5 -13.5h-3q-8 0 -13.5 5t-11.5 8 q-17 6 -35.5 10.5t-36.5 4.5q-49 0 -90.5 -17.5t-71.5 -48.5t-47 -73t-17 -91t15.5 -96.5t49.5 -84.5q18 -20 39 -37t39 -36.5t30 -42t12 -52.5q0 -8 -0.5 -19t-9.5 -15q-24 0 -60 -5t-69.5 -18.5t-57.5 -36t-24 -55.5zM29 10q0 22 10 36t25 21.5t33.5 10t36.5 2.5t38.5 -2 t40.5 -7.5t37.5 -15t30.5 -24.5q-12 -16 -34 -29.5t-47 -23.5t-50 -15.5t-44 -5.5q-13 0 -26.5 2.5t-25 9t-18.5 16.5t-7 25zM69 524q0 67 32 110t88 77q39 16 85 16q6 0 19 -1t26.5 -3t25 -6.5t15.5 -11.5q-8 -10 -19.5 -16.5t-20.5 -13.5l-7.5 -7.5l-11 -11t-10.5 -11 t-7 -7.5q-3 -3 -3 -6q-16 -26 -27 -52t-16 -56q-3 0 -3 -3h-2q-3 0 -11.5 3t-8.5 8q0 22 10 45t21 42v5q-11 0 -18 -11.5t-13.5 -25t-14 -24.5t-17.5 -11q-2 0 -6.5 3t-9 7.5t-8.5 8t-5 5.5q-14 16 -21 25.5t-16 30.5h-2q0 -27 19 -48t38 -38l3 -3v-2v-1q-10 -11 -28 -25 t-27 -27v-2v-1q15 -2 15 -7t4 -18q6 -24 13.5 -42t22.5 -38q2 -3 11.5 -13.5l20.5 -23l20.5 -23t12.5 -13.5q13 -16 22 -34.5l17 -36.5q1 -2 1 -11v-12q0 -20 -4 -39t-21 -33l-3 3q5 35 -6.5 66t-32 60t-45 57.5t-46.5 59t-36.5 64.5t-14.5 73zM96 671h4q1 12 4 29t10 32.5 t18 26.5t29 11q4 0 7 -2.5t6 -5.5t7 -5.5t11 -2.5q9 0 11.5 5t3.5 10.5t3 10.5t9 5t12.5 -1.5t12.5 -1.5h12q8 6 10.5 17.5t2.5 21.5q-10 0 -14 -4t-6.5 -9.5t-5.5 -9.5t-9 -4q-5 0 -9.5 1.5t-9.5 1.5q-8 0 -10 -5t-2.5 -10.5t-2 -10.5t-8.5 -5q-8 0 -12.5 6.5t-13.5 6.5 q-22 0 -35.5 -10.5t-21 -26.5t-10.5 -35t-3 -36zM213 500q0 6 1.5 9.5t7.5 3.5q5 0 8 -1t5 -6q7 -17 7 -35t8 -35q9 -20 19.5 -39t20 -38t15.5 -39t6 -42v-23q0 -5 -1 -13.5t-2 -8.5h-3q-2 29 -8 63t-23 60l-22 34.5t-19.5 33.5t-14 35.5t-5.5 40.5zM286 172q0 5 4 6v-3 q0 -5 -3 -6zM291 184q0 3 2 3t2 -3t-2 -3t-2 3zM292 571q0 36 12 61.5t44 45.5l12.5 7.5t14.5 4.5q8 0 16 -9.5t14 -22t10 -24.5t4 -17q0 -21 -8.5 -40.5t-23 -34t-34 -23t-40.5 -8.5q-2 0 -6 0.5t-5 0.5l-3 3q-1 1 -3.5 13t-2.5 18q0 1 -0.5 10.5t-0.5 14.5zM391 77v1 q0 4 12 9.5t27.5 10.5t30 9t19.5 4h29q16 0 29 -1.5t25.5 -5t25.5 -8l29 -10.5q3 -1 7.5 -3.5t4.5 -7.5v-1q-22 -27 -52 -36.5t-63 -9.5q-32 0 -66 14t-58 35z" />
<glyph unicode="F" horiz-adv-x="567" d="M18 534q0 -22 4 -48.5t14 -47.5q3 -5 8 -10.5t5 -11.5t-3.5 -11.5t-3.5 -12.5q0 -8 4.5 -11t9.5 -4.5t9.5 -3.5t4.5 -9q0 -8 -6 -14t-6 -14v-2q0 -3 3 -6q15 -13 28 -26.5t21 -31.5q24 -58 41 -118t17 -124v-34q-2 -8 -7.5 -16t-11.5 -14.5l-10.5 -11t-4.5 -5.5v-5 q2 0 8 -1t8 -2h1q5 0 11.5 5.5t8.5 7.5q23 16 35.5 43t18 57t6.5 61t1 56v9q0 9 0.5 20.5t0.5 22.5v18q0 45 -2 88t-2 87v31q2 5 4.5 5.5t6.5 0.5t6.5 -0.5t4.5 -5.5q-2 -57 0.5 -112.5t2.5 -112.5q0 -37 2 -81.5t-3 -88t-21 -81.5t-52 -63q-11 -8 -23.5 -13.5t-26.5 -5.5 q-11 0 -22.5 2.5t-21.5 8.5t-16 15.5t-6 22.5t6.5 17t15 6.5t15 7.5t6.5 21q0 17 -7.5 27t-24.5 10q-25 0 -36.5 -20t-11.5 -42q0 -20 8.5 -35.5t22.5 -26.5t31.5 -17t35.5 -6q29 0 53.5 12t44.5 31q39 36 59.5 75.5t28.5 83t8 90.5t-1 97q2 15 8 31t15.5 28.5t23 21 t30.5 8.5q19 0 32.5 -11.5t13.5 -30.5q0 -20 -9.5 -39.5t-9.5 -42.5q0 -7 0.5 -15.5t3.5 -16.5t8.5 -13.5t15.5 -5.5q9 0 13.5 7.5t4.5 15.5v8q-17 -1 -24 8.5t-7 24.5q0 35 17.5 64t38 56t38 55.5t17.5 63.5v16q-5 8 -9.5 11.5t-13.5 3.5q-6 0 -10 -5t-4 -10q0 -13 12 -13 h3q1 1 3.5 2.5t3.5 1.5l1 -1.5t2 -2.5v-9q0 -5 -2 -15.5t-5.5 -21.5t-9 -19t-11.5 -8q-9 0 -21 7.5t-26 7.5q-33 0 -56.5 -15t-46.5 -37q-4 -4 -9 -13l-10 -18.5t-10 -16.5t-8 -7h-3q-1 23 -2 50.5t-1 53.5q0 8 0.5 23t2.5 20q1 2 9 9t10 9q14 20 20.5 38.5t6.5 41.5 q0 14 -3 28t-3 28q0 8 5.5 11.5t13.5 3.5t13.5 -5t13.5 -8q24 -9 50 -9q22 0 40 4t33 12t29 20t29 28q8 9 14 18t6 21q-11 0 -19.5 -8t-19.5 -12q-17 -6 -30 -8t-31 -2q-26 0 -44 5.5t-36 25.5l-1 0.5t-2 0.5q-3 0 -5 -4t-4 -9.5t-3.5 -10.5t-2.5 -7q-2 -3 -8 -8.5l-13 -12 l-13 -12t-9 -7.5q-1 -1 -4.5 -3.5t-4.5 -2.5l-0.5 -0.5t-1.5 -0.5l-1 1q-16 14 -26 26t-29 23q-11 6 -23 8t-23 7q-8 4 -7.5 10t-4.5 11l-26.5 25.5t-32.5 11.5q-16 0 -28.5 -10.5t-12.5 -27.5q6 0 9.5 3.5t7.5 8t9 8t15 3.5q13 0 20.5 -5t7.5 -19q0 -9 -8 -14t-19.5 -8 t-22.5 -4.5t-17 -4.5q-24 -11 -46 -27t-39.5 -36.5t-27.5 -45.5t-10 -53zM33 513q0 26 7.5 51.5t21 48.5t32.5 41t43 29q8 4 22 10t25 6h5t4 -3q-15 -17 -28 -28t-22.5 -23t-15 -28t-5.5 -41q0 -27 8.5 -52.5t28.5 -45.5v-4q0 -10 -13.5 -17t-20.5 -9v-6h28l5 -5t7 -8 q8 -10 7 -24.5t-1 -27.5q0 -6 0.5 -22.5t1.5 -39.5t1.5 -48l1 -48t1 -40t0.5 -22v-12q0 -8 0.5 -17.5t0.5 -17.5v-11h-4q-8 39 -18.5 79t-27.5 77q-10 22 -19.5 38t-23.5 35q-1 1 -2 3.5l-1 2.5v40q0 11 -8 14.5t-13 10.5q1 10 -1 17t-5 14t-7.5 14t-8.5 16q-5 12 -5.5 26.5 t-0.5 26.5zM143 531q0 11 2.5 25.5t10.5 22.5l64 65q4 4 8 12.5l8.5 17.5t9.5 15.5t11 6.5q8 0 22 -6t27.5 -15.5t23.5 -21t10 -22.5v-3q-38 -32 -59 -70t-30 -86q-2 -5 -5 -5.5t-7 -0.5h-6q-3 0 -4 3v11q0 43 12 74.5t40 61.5v6h-6l-18 -18l-74 -110q-2 -3 -5.5 -6.5 t-7.5 -3.5h-2q-11 6 -18 20t-7 27zM318 494v33v34q0 3 2 11.5t5.5 17.5t8 16t10.5 7q5 0 8 -9.5t3 -11.5v-22q0 -23 -7 -41t-21 -35q0 -3 -3 -3q0 -1 -1 -1v0q-2 0 -2 1l-1.5 1t-1.5 2z" />
<glyph unicode="G" horiz-adv-x="635" d="M17 297q0 -43 7 -79t22 -67.5t38.5 -60t56.5 -56.5q2 -2 9.5 -5.5t15.5 -8l14.5 -8.5t6.5 -7v-1h-1q-6 -7 -15 -14l-18 -14.5t-15 -16.5t-6 -19q2 0 9 1t6 8l46 45q3 4 10 4h5q34 -8 64 -13.5t65 -5.5q33 0 60 6.5t59 15.5h5q10 0 12.5 -10.5t7.5 -17.5v-58 q0 -10 -6 -21.5t-15.5 -21t-21 -16t-21.5 -6.5q-18 0 -26 11t-16 24.5t-20 24.5t-38 11q-14 0 -22.5 -2t-13.5 -7t-9 -12.5t-9 -18.5q-3 -6 -11 -6.5t-8 -8.5q0 -7 10 -7t15 6.5t8.5 14t8.5 14t16 6.5q10 0 16 -11.5t15 -25.5t24.5 -25.5t44.5 -11.5q21 0 38 11t29 28t18 37 t6 39q0 14 -0.5 19.5t-2.5 18.5q-2 8 -6 14t-4 14q0 3 4.5 7t10.5 7.5t11.5 6t7.5 3.5q50 38 77.5 94t27.5 118q0 28 -8 56t-23 51q-20 30 -42.5 49t-48.5 29.5t-56 14t-65 2.5l-3 3v153h6q22 -11 37 -16.5t38 -5.5q32 0 58.5 11.5t49 30t41 42.5t34.5 48q2 5 5.5 12t3.5 13 h-6q-20 -36 -52 -59.5t-74 -23.5q-17 0 -29.5 5t-22.5 20v6q0 6 3 11.5t6.5 10.5t6.5 10t3 12q-6 0 -11.5 -4.5t-10 -10.5t-7.5 -12t-5 -8q-2 -3 -8 -9l-13 -13l-13 -13t-9 -8q-4 -1 -11 -6.5t-14 -12.5l-13.5 -14t-10.5 -10q-23 -20 -42 -32t-47 -26q-3 -1 -3 -6v-3 q12 1 18 -6t9 -16.5t3 -20.5v-18q-15 0 -30 12q-3 2 -9.5 7.5l-13 11.5t-12.5 10.5t-8 6.5l-9.5 10l-11 12l-9.5 10.5l-4 4.5v12q0 1 7 9t12 13q2 3 7 7.5t9.5 9.5t8.5 9l5 5q2 1 7 5l11 8.5t11.5 8t7.5 5.5q4 3 14 6t20 6.5t17.5 7t7.5 6.5q0 5 -4 5h-6q-12 0 -25 -5.5 t-26 -13t-25 -16t-22 -14.5q-44 -27 -81.5 -64t-65 -81t-43.5 -93.5t-16 -102.5zM91 277q0 69 14 129.5t48 120.5q1 2 7 10t8 12l6 6h2h1q3 -2 11.5 -9t10.5 -9q1 -2 3.5 -4l2.5 -2v-2v-2q-24 -20 -42.5 -53t-31 -71t-18.5 -76.5t-6 -67.5q0 -60 21 -105t58 -92 q6 -8 14 -12.5t14 -12.5q0 -3 -3 -3t-7.5 3t-9.5 7t-9 7.5t-5 4.5q-47 43 -68 100.5t-21 120.5zM159 240q0 27 8 59t19 57q5 11 16 29t24.5 34.5t28.5 28.5t30 12q4 0 7 -0.5t5 -5.5v-11q0 -12 -0.5 -20.5t-2.5 -23.5q-29 -26 -45.5 -61.5t-16.5 -75.5q0 -28 13 -52t27 -47 q4 -5 10 -11t6 -13q0 -12 -4.5 -25.5t-11.5 -27t-15.5 -25t-17.5 -18.5h-4q-4 0 -4.5 1.5t-4.5 5.5q-35 40 -51 88t-16 102zM244 276q0 6 4.5 23t11.5 34.5t15.5 31t16.5 13.5l0.5 -0.5t1.5 -0.5q3 -18 3 -36v-36q0 -33 1 -68.5t-7 -67.5h-3q-10 0 -18 15t-14 34t-9 36.5 t-3 21.5zM247 34q0 3 1 3.5t3 2.5t12 9.5t12 9.5l10.5 10l16 15.5l15.5 16l10 10.5h3q4 -2 14 -8l20.5 -12t20 -12t13.5 -8q6 -3 14 -8.5l16 -11.5t13.5 -12.5t5.5 -12.5q0 -10 -12 -16.5t-27.5 -10t-31 -4.5t-22.5 -1t-24.5 2.5t-36 7t-32.5 12t-14 18.5zM336 125q0 7 4 11 t10 5.5t12.5 2t10.5 1.5q25 3 43.5 7.5t33.5 12.5t26.5 22t22.5 37q4 8 6.5 16t2.5 16v7q0 4 -3 7q-28 2 -37.5 17t-11.5 41l-3 1q-2 0 -9.5 -12l-17.5 -27l-19.5 -29t-14.5 -18q0 -1 -0.5 -2.5t-0.5 -2.5q0 -5 4.5 -6t10 -2.5t10 -6t4.5 -17.5q0 -20 -14 -31.5t-33 -11.5 h-12q-3 0 -3 3v1q0 12 5.5 27.5t6.5 26.5q0 3 0.5 11t1 17l1 17.5t0.5 12.5q0 8 0.5 27t0.5 40q0 22 -0.5 41t-0.5 27q-1 13 6.5 14.5t16.5 1.5q32 0 54.5 -16.5t42.5 -39.5q26 -28 33 -67t7 -75q0 -48 -14 -94t-42 -85q-5 -7 -7.5 -10t-8.5 -3q-2 0 -14 8.5l-27.5 20 l-30.5 22t-22 14.5q-5 3 -15 7t-15 11q-1 0 -1 2zM426 135q0 -3 2 -3q3 0 3 3t-3 3q-2 0 -2 -3z" />
<glyph unicode="H" horiz-adv-x="693" d="M17 10v-40q0 -8 5 -14t12.5 -10t16 -5.5t14.5 -1.5q10 0 19.5 3.5t9.5 16.5q0 8 -7 8t-13.5 -4.5t-15.5 -4.5q-14 0 -21.5 8.5t-7.5 21.5q0 25 13 42.5t33 29t43.5 16.5t43.5 5q36 0 70 -14.5t58 -41.5q4 -5 5 -13.5t10 -8.5q1 0 2 0.5l1 0.5q32 34 66.5 62.5l71.5 56.5 q3 3 3 6q0 5 -2 9t-7 4h-3q-27 -30 -61 -49q-1 0 -2 -0.5t-2 -0.5l-4.5 4t-10.5 8.5l-12 9t-9 6.5q-29 14 -53.5 21t-57.5 10l-3 3l2 3.5t4 5.5l28 28q4 4 12.5 18t16.5 29l14.5 27t7.5 12v0q1 0 1 -1q12 -28 38 -43t56 -15q19 0 35 9t27.5 23.5t18 32.5t6.5 35v14l-3 3 q-25 -3 -35 9.5t-8 36.5q-1 3 -8 3h-4q-2 -8 -8.5 -19t-15 -22t-18 -19.5t-17.5 -10.5v-7q0 -6 3 -9t6.5 -5.5t6.5 -5.5t3 -8q0 -11 -9 -15.5t-17 -4.5q-17 0 -31 13t-14 30q0 30 9 52t24.5 38t36 29t44.5 25q6 3 11 3h12q24 0 38 -19t21 -45.5t8.5 -54t1.5 -44.5 q0 -30 -2 -60.5t-2 -61.5q0 -35 2.5 -71.5t16.5 -69.5q26 -58 77.5 -96.5t117.5 -38.5h26q24 8 41 28t17 46q0 5 -2 9t-4 9q-10 27 -28.5 47t-41.5 33.5t-50 20.5t-54 7h-16t-19.5 -2.5t-16.5 -7t-7 -13.5q16 0 31 3.5t31 3.5q21 0 48.5 -6.5t52 -19.5t41.5 -33t17 -46 q0 -32 -22.5 -48t-50.5 -16q-38 0 -67 17t-49 44.5t-30.5 61.5t-10.5 68q0 38 7.5 78t15.5 75v9q0 5 1.5 17t3.5 26t3.5 26t1.5 17v1v2q0 9 -1 24l-2 29.5t-2 25l-1 10.5q0 1 -3.5 15l-5.5 22q-2 6 -6.5 16t-11 19.5t-14 16t-15.5 6.5h-5q-27 -34 -64 -52.5t-77 -33.5 q-16 -13 -30.5 -23t-27.5 -26q-1 -1 -4 -6t-7.5 -10.5t-5.5 -5.5h-2q0 9 -1.5 30.5t-3 46.5t-3 46.5t-1.5 30.5v30q0 12 1.5 29.5t5.5 35t11.5 33t18.5 22.5q2 -1 5 -4.5t4 -4.5q2 -2 6.5 -9.5t5.5 -9.5q15 -16 38 -23.5t44 -7.5q27 0 53.5 9.5t50 26t43 37.5t32.5 44l2.5 5 t0.5 4q0 7 -6 7q-3 0 -9 -7t-12.5 -16l-13 -18t-11.5 -12q-14 -8 -31 -14.5t-33 -6.5q-12 0 -25.5 3t-25 9t-19 16.5t-7.5 25.5q0 10 6 15t13.5 7.5t14 3.5t6.5 4q0 4 -3 4.5t-6 0.5q-23 0 -45 -11t-41.5 -27.5t-37.5 -34.5t-33 -31l-18 -16l-22.5 -20l-20 -17.5t-9.5 -8.5 q-37 -29 -69.5 -48t-74.5 -34q-2 -2 -6 -3.5t-4 -4.5q0 -4 3 -4.5t5 -0.5h5q2 1 12 3.5t12 2.5h2q1 0 3.5 -11.5t5 -27t5.5 -31t6 -22.5q8 -22 18.5 -41.5t20 -39.5t16 -41.5t6.5 -45.5h-3l-3.5 6t-5.5 9l-21.5 40.5t-24.5 36.5q-3 4 -9.5 11.5l-13 15.5l-11.5 14t-6 8 q-28 37 -43.5 85.5t-15.5 93.5q0 15 2.5 33t9.5 34.5t19.5 27.5t32.5 11q15 0 27.5 -6.5t24 -14t23.5 -13.5t27 -6q13 0 27 4.5t25 13t18 20t7 26.5q0 10 -0.5 15.5t-2.5 15.5q-2 6 -8.5 13l-13.5 14.5l-12.5 13t-5.5 8.5q0 4 2.5 6t5.5 4t5.5 4.5t2.5 7.5q0 8 -6 10t-13 2 h-3l9 -9q-5 -4 -10 -10.5t-5 -12.5q0 -9 5 -15.5t11.5 -11t11.5 -8.5t5 -7v-21q0 -3 -4 -4.5t-9 -2t-9 -0.5h-5q-9 0 -15 2.5t-10.5 6t-9.5 8t-14 8.5q-6 3 -20 3h-20q-30 0 -53 -13t-38.5 -34t-23.5 -47.5t-8 -53.5q0 -45 10.5 -88t32.5 -82q15 -27 36 -52t40.5 -51t33 -54 t13.5 -61q0 -22 -4.5 -33t-13.5 -17.5t-21.5 -11t-28.5 -12.5q-30 -15 -58.5 -40t-45.5 -55q-2 -3 -7 -11.5t-5 -12.5zM191 -87q0 -5 1 -9.5t6 -7.5h12q19 0 26 9t10.5 20.5t7.5 20.5t19 9q8 0 12 -6t5.5 -14t1.5 -16t1 -13q8 -16 23 -23.5t32 -7.5t34.5 6.5t32.5 14.5 l14 14l20.5 21.5l20 21.5l13.5 14q1 1 6 7l10.5 13t10.5 12.5t7 7.5q8 9 11.5 11t3.5 15q-8 0 -11 -2.5t-8 -8.5q-14 -16 -28.5 -34.5t-31 -34t-36 -25.5t-43.5 -10q-26 0 -38 8t-19.5 18t-14.5 18t-21 8q-18 0 -26 -8.5t-12 -19t-8.5 -19t-15.5 -8.5q-8 0 -10 4.5t-9 4.5 q-6 0 -7.5 -2.5t-1.5 -8.5zM213 509v14t1.5 16t4.5 15t9 11l4 -4q1 -23 4.5 -45.5t7.5 -45.5q5 -31 14.5 -60t9.5 -61v-8q0 -5 -0.5 -13l-1 -15.5t-1 -13.5t-0.5 -7q0 -3 -1.5 -10.5l-3.5 -17t-4 -18l-3 -12.5q-2 -8 -7 -21t-11 -16l-0.5 1t-0.5 2t0.5 2l0.5 1q7 29 14 55 t7 56q0 26 -6.5 50t-15 47.5t-15 47.5t-6.5 50z" />
<glyph unicode="I" horiz-adv-x="499" d="M17 164q0 -41 13.5 -74t38.5 -55.5t59.5 -34.5t75.5 -12q22 0 48 10t51 25t46.5 32.5t35.5 33.5q17 26 29.5 49.5t20 47.5t11 50t3.5 57q0 28 -1.5 55.5t-1.5 56.5v12l92 92q0 3 3 6q2 2 9 10.5t9 10.5q14 17 24 41t10 46q0 27 -11 40.5t-39 13.5q-15 0 -31.5 -6.5 t-31.5 -16.5t-28.5 -21t-23.5 -20l-11 -10.5l-17 -15.5l-17 -15.5l-11 -10.5q-13 -23 -12.5 -48t0.5 -49v-38l34 -166v-13q-1 0 -2 -1.5t-1 -0.5q-1 1 -2 4t-1 5l-10 40q-5 22 -12.5 43l-14.5 42t-13 42.5t-9 44.5v15q0 27 7 48t19 39t28 34.5l35 34.5q23 23 49 42.5 t55 34.5v7q-9 0 -16.5 -4t-14.5 -9t-14 -9t-16 -4q-6 0 -14 4.5t-15.5 10.5l-14.5 11.5t-11 7.5q-35 20 -71.5 28.5t-76.5 8.5q-32 0 -68 -13.5t-66 -36.5t-50 -54t-20 -67q0 -32 14.5 -54.5t49.5 -22.5q31 0 45.5 15t22.5 32.5l14.5 32.5t21.5 15q9 0 13 -5t7 -10.5 t7.5 -10.5t14.5 -5q3 0 9 2t12 6t10 8.5t4 9.5v2q-3 5 -10.5 3.5t-11.5 -0.5q-8 2 -9.5 6t-3 8.5t-6.5 7.5t-19 3q-18 0 -28 -8t-16.5 -20t-11.5 -26t-12.5 -26t-19.5 -20t-33 -8q-29 0 -40.5 18t-11.5 44q0 30 14 56t36 45.5t50 30.5t56 11q21 0 47 -9t49.5 -24t39 -36 t15.5 -45q0 -11 -8.5 -22.5t-16.5 -19.5l-37 -37q-3 -3 -14 -13l-24 -21.5l-26 -22.5l-19 -16q-6 -6 -15.5 -10.5t-9.5 -15.5q12 0 21 10t20 10q6 0 6 -6q-3 -42 12 -77t34 -71v-6q0 -8 -8.5 -16.5l-13.5 -13.5l-5 -7.5l-6.5 -9.5t-6 -9t-3.5 -5q-21 -34 -29 -74.5t-8 -79.5 q0 -1 2 -12t5.5 -24t8 -23.5t10.5 -10.5h2q0 3 3 3v2v2q-1 1 -5 8.5t-4 9.5q-4 10 -7 25.5t-3 26.5q0 25 5 52t14.5 52.5t24 48.5t33.5 40h1q10 0 20.5 -18.5t18.5 -42t13 -45t5 -27.5q0 -33 -14.5 -60.5t-38 -47t-53 -30.5t-59.5 -11q-26 0 -52 7t-47.5 21t-35 35.5 t-13.5 50.5q0 13 4 27t12 25.5t19.5 19t26.5 7.5q8 0 14 -3t14 -3q6 0 9 3q29 27 43.5 57t14.5 71q0 12 -3 28t-10 29.5t-18 23t-27 9.5q-5 0 -9.5 -0.5t-6.5 -6.5q-1 -2 -1 -6v-4h29q3 0 6.5 -5t6 -11.5t4 -12t1.5 -6.5q0 -24 -14 -41.5t-38 -17.5q-11 0 -16.5 4.5 t-13.5 14.5h-2q-11 0 -13 -8.5t-7 -16.5q-23 -33 -40.5 -62.5t-17.5 -70.5zM265 -12q0 -4 3 -6q26 -17 47 -25.5t52 -8.5q8 0 20.5 -0.5t21.5 3.5q20 8 36.5 21t37.5 13q27 0 27 -25q0 -13 -6 -23.5t-6 -24.5q0 -18 8.5 -24t25.5 -14h1h2q2 1 13.5 5t13.5 5h3q7 0 7 -8 q0 -6 -2 -11.5t-2 -11.5h7q5 0 7 8.5t2 13.5q0 10 -7 14t-15 4t-14.5 -3t-14.5 -3q-10 0 -16.5 7t-6.5 16q0 14 6.5 25t6.5 25q0 30 -18.5 41.5t-45.5 11.5q-17 0 -30.5 -9.5t-28.5 -15.5q-18 -8 -33 -12t-33 -4h-15t-14 4q-8 3 -17 10.5t-17 7.5q-6 0 -6 -6zM391 211v7h3 v-7h-3zM440 466v4q0 28 2.5 54.5t10 50.5t22 44t38.5 37q11 7 15 8t15 1q14 0 26 -6t12 -23q0 -27 -13.5 -56t-33.5 -55.5t-43 -49t-42 -37.5h-2h-1q-1 0 -2 1.5l-1 1.5q-1 3 -2 12.5t-1 12.5z" />
<glyph unicode="J" horiz-adv-x="506" d="M17 159q0 -38 14 -70t38.5 -55t57 -36.5t69.5 -13.5q27 0 46.5 5.5t44.5 16.5q43 18 75.5 47t53.5 66t31.5 80t10.5 89q0 28 -1.5 55.5t-1.5 55.5v11l18.5 18l28 27.5l27.5 28l18 18.5q21 23 38 54.5t17 63.5q0 26 -10.5 38.5t-36.5 12.5q-17 0 -33.5 -6.5t-32.5 -16 t-30 -21t-25 -21.5q-2 -2 -9 -8t-14.5 -14l-15 -15.5t-10.5 -11.5q-2 -1 -4 -4t-3 -5q-2 -5 -4.5 -14.5l-4.5 -16.5q0 -4 -0.5 -14.5l-1 -22l-1 -22t-0.5 -14.5q0 -2 1 -11.5t2 -13.5l7 -33t10 -51t10 -51l7 -33v-8q-3 0 -3 -1q-1 0 -2 3.5t-1 5.5q-1 2 -2.5 9t-3.5 15.5 t-4 15.5t-2 9q-14 43 -30.5 85t-16.5 89q0 24 5.5 46.5t19.5 42.5q3 3 3 6l14 14.5l21 21.5l21.5 21l14.5 14l20.5 18.5t24 20t26.5 17.5t27 11v3q0 7 -8 7t-15 -4.5t-13.5 -9.5t-13 -9.5t-13.5 -4.5q-8 0 -15 4.5t-14 10.5l-14 12t-14 10q-65 34 -138 34q-3 0 -15 -0.5 t-15 -0.5q-14 -4 -26.5 -5t-25.5 -7q-24 -11 -48.5 -26.5t-43.5 -35.5t-31 -44.5t-12 -53.5q0 -32 15 -54t51 -22q30 0 44 15.5t22.5 34l16 34t23.5 15.5q7 0 10.5 -5t6.5 -11t7 -11t13 -5q11 0 25 5.5t14 19.5v3q-12 0 -18.5 4t-12.5 9.5t-12.5 10t-17.5 4.5 q-10 0 -19 -3.5t-18 -8.5q-10 -13 -16.5 -30t-14 -32.5t-19.5 -26t-34 -10.5q-30 0 -42 18.5t-12 46.5q0 29 14 54.5t36 45t49.5 30.5t54.5 11q22 0 49 -8t51 -22.5t40 -35.5t16 -47q0 -13 -13 -30.5t-32.5 -36t-42.5 -36.5l-42.5 -33t-32.5 -26t-13 -15q15 0 25.5 8t24.5 8 q0 -43 13.5 -79t35.5 -73v-3q0 -6 -5.5 -14t-13 -17t-15.5 -17.5t-12 -15.5q-20 -33 -28.5 -70t-8.5 -75v-21q0 -2 1.5 -7l3.5 -11.5l4 -12.5l3 -9q2 -3 5.5 -9t4.5 -6h7q0 18 -8.5 35.5t-8.5 36.5q0 51 18.5 100.5t52.5 87.5q3 4 4 5.5t5 1.5q5 0 7 -2.5t5 -7.5 q20 -26 33 -57.5t13 -66.5q0 -33 -15.5 -60.5t-40.5 -47t-56 -30t-61 -10.5q-25 0 -51 7.5t-47 22t-34.5 36t-13.5 49.5q0 13 5 27t13.5 26t20.5 20t26 8q8 0 13 -3.5t13 -3.5q16 0 29 15.5t22 36.5t13.5 43t4.5 34q0 11 -3 26.5t-9.5 30t-17.5 25t-26 10.5q-4 0 -10 -0.5 t-7 -5.5q-1 -2 -1.5 -6.5l-0.5 -4.5h29l12 -19.5t4 -22.5q0 -21 -12.5 -36t-34.5 -15q-11 0 -16.5 2.5t-9 5.5t-6 5.5t-7.5 2.5q-11 0 -13.5 -10.5t-11.5 -20.5q-1 -2 -5.5 -8t-6.5 -8q-17 -23 -30 -51.5t-13 -58.5zM271 -15v-2v-2l1.5 -1t1.5 -2q23 -16 44.5 -26.5 t50.5 -10.5q13 0 26.5 1t25.5 6q19 8 35 19.5t37 11.5q26 0 26 -24q0 -14 -6 -26t-6 -26q0 -17 9 -22.5t25 -12.5h1h2q6 2 15.5 5.5t16.5 3.5q5 0 6 -6.5t2 -8.5h1h2q1 0 3 1.5t3 1.5v1q0 10 -7.5 17t-17.5 7q-8 0 -14 -3.5t-14 -3.5q-11 0 -16 7t-5 17q0 14 8 26.5t8 28.5 q0 9 -5.5 17.5t-14 15t-18.5 10.5t-19 4q-18 0 -34.5 -6.5t-32 -15t-32.5 -15t-37 -6.5t-33 6.5t-29 18.5h-1h-2zM400 205v9h3v-9h-3zM449 471v4q0 52 14.5 98.5t58.5 75.5q8 5 17.5 8.5t19.5 3.5q8 0 16.5 -5t11.5 -13v-20q0 -33 -15.5 -62t-36.5 -53q-4 -5 -15 -16 l-23 -23l-23.5 -22.5t-15.5 -14.5l-0.5 -0.5t-1.5 -0.5l-1 1q-3 0 -3 3q-1 4 -2 18t-1 18z" />
<glyph unicode="K" horiz-adv-x="746" d="M17 17q0 -27 18 -40.5t44 -13.5q48 0 88 21t80 47q8 5 18.5 12.5t10.5 18.5q-14 0 -24 -9t-20 -16q-38 -26 -74 -44t-83 -18q-20 0 -34.5 11t-14.5 32q0 25 15.5 42t38 27.5t47 15.5t43.5 5q28 0 56 -6t50 -19.5t36.5 -35.5t17.5 -53q0 -4 3 -4h6q1 0 3 0.5t3 0.5 q3 3 10.5 12l15.5 18.5l15.5 18.5t10.5 12q6 7 14.5 15.5t17 18t14.5 19t6 17.5q0 7 -6 7q-5 0 -8.5 -4.5t-6.5 -9.5t-6.5 -9.5t-7.5 -4.5t-12 4.5l-18 10t-19 11l-14 8.5q-27 13 -58 20.5t-61 6.5q-3 3 -4 3v2v1q23 10 39 24.5t28.5 31t25 35t27.5 35.5q12 14 23.5 22 t28.5 21q4 3 7 6t9 3q5 0 9 -6q24 -54 40 -110t39 -111l18 -36.5t25 -33.5q4 -3 15.5 -14t15.5 -14h3q6 0 18.5 13.5t27.5 31.5l29 36t23 27l0.5 1.5t0.5 2.5q0 11 -12 11q-8 0 -13 -5t-9.5 -10.5t-10 -10.5t-13.5 -5q-9 0 -17.5 6.5t-15.5 16t-12.5 19.5t-7.5 17 q-2 4 -5.5 14.5t-7 22.5t-7.5 23t-5 16q0 2 -1.5 9.5t-1.5 8.5q-6 24 -15.5 47l-18.5 45q-2 6 -7.5 12.5t-10.5 13t-9 12.5t-4 11q0 1 0.5 2t0.5 2q6 7 21.5 19t31 25.5t27.5 26.5t12 22v2q-1 0 -2 2.5t-1 3.5q-2 2 -6.5 9t-6.5 9l-10 17.5l-14.5 26l-13.5 23.5t-8 10h-3 q-29 -31 -59.5 -59l-62.5 -55l-3 3q-1 1 -1 14v21q0 38 -1 80t8 78q2 9 9.5 22.5t7.5 24.5q-10 0 -14 -7q-21 -31 -46 -57.5l-52 -52.5q-1 0 -3.5 -1.5l-2.5 -1.5q-2 -1 -7.5 -6l-12.5 -11l-13 -11t-7 -6q-17 -13 -34.5 -22l-36.5 -18q-7 -3 -18.5 -9l-11.5 -6v-8l49 17 l3 -3q-1 -29 1 -51.5t7.5 -43.5t13.5 -42.5l18 -46.5q8 -22 16 -39t8 -43q0 -18 -3 -34t-9 -34q-4 -12 -16 -16.5t-21 -10.5q0 -1 -1.5 -3.5t-1.5 -3.5q-3 -4 -4.5 -3t-6.5 1q0 2 -1 2q1 2 6 9.5t6 9.5l5.5 11l6.5 13q8 16 9 30t1 31q0 27 -7 50t-19 45t-27 42l-30 41 l-11.5 26t-10 23.5t-7 24t-2.5 29.5q0 45 22.5 83t57.5 65.5t78 43t85 15.5q30 0 56.5 -9t50 -24t44.5 -34t41 -40q7 -5 18 -15t19 -10h58q12 0 26 9t26 21.5t20 27t8 26.5q0 18 -9 26t-19.5 12l-19 7.5t-8.5 11.5q0 12 9 14t20.5 2.5t20.5 5t9 21.5v3q0 1 -3 6t-3 6v2v1 q5 7 6 6.5t1 8.5q-8 0 -14 -3t-6 -12q0 -5 3.5 -8.5t3.5 -8.5q0 -9 -9 -11t-20.5 -4t-20.5 -8t-9 -22q0 -17 8 -21.5t17 -6.5t17 -6t8 -19q0 -12 -7 -21.5t-17 -16t-22 -9.5t-22 -3q-11 0 -22.5 5t-20.5 10q-2 1 -11.5 7.5l-20.5 14l-20.5 13.5t-11.5 8q-37 22 -79 36 t-86 14q-21 0 -42 -2.5t-41 -10.5q-33 -14 -58 -27.5t-45 -31t-37 -39.5t-35 -52q-5 -8 -10 -19t-5 -21v-95q0 -1 3.5 -13t5.5 -18q10 -30 26.5 -55.5l32.5 -51t27.5 -52.5t11.5 -61v-25q-8 -17 -15.5 -25.5t-17 -13.5t-22 -8.5t-28.5 -10.5q-17 -8 -34.5 -19.5t-32.5 -27.5 t-24.5 -34.5t-9.5 -39.5zM271 510v24t2 27.5t7 25.5t16 20l3 -3l0.5 -13.5t1.5 -32l2 -38.5t2 -33q3 -54 3 -110v-6q0 -3 -1 -10.5t-2 -16t-2 -15.5t-1 -10q-2 -4 -5 -4q0 25 -4 49t-9 48.5t-9 48.5t-4 49zM296 297v3h3v-3h-3zM345 -60q0 -15 8.5 -21.5t19 -10t19 -6 t8.5 -8.5q0 -4 -4 -6t-8.5 -3.5t-8.5 -4t-4 -8.5q0 -5 1 -7.5t6 -2.5h3q-2 7 1.5 9.5t9 5t10.5 7t5 15.5q0 2 -0.5 5.5t-1.5 3.5l-46 15q-5 2 -7 8.5t-2 11.5q0 8 5 13l10 10q2 0 7 0.5t7 0.5q22 0 43.5 -5.5t42.5 -12t42 -12t44 -5.5q33 0 64 9.5t55 28.5t39 46.5t15 62.5 q0 27 -16 49.5t-39.5 39t-51.5 26t-52 9.5v-7q43 -11 77.5 -26.5t63.5 -53.5q9 -18 9 -35q0 -29 -11.5 -52t-30.5 -40t-44 -26t-52 -9q-21 0 -40.5 6t-38.5 12.5t-38.5 12.5t-40.5 6q-12 0 -25.5 -2t-25 -8t-19.5 -16t-8 -25zM354 322v1q0 11 5 24t7 24q0 2 1 8l2 12.5l2 13 t1 9.5q0 1 0.5 6t1.5 11.5t1.5 12.5t0.5 9q0 6 0.5 11.5t5.5 10.5q2 1 10 8l17 14.5l17.5 14.5t10.5 9q3 2 8.5 8.5t11.5 6.5h1q3 0 3 -3l43 -73v-4l-6.5 -7.5t-16 -17l-19.5 -20l-16 -16.5l-43 -39t-46 -37l-1.5 1t-1.5 2zM372 138q3 -3 7 -3h1h2q24 12 44.5 23.5 t47.5 19.5v7q-28 0 -51.5 -13.5t-46.5 -24.5q-1 -1 -2 -3t-2 -3v-2v-1zM409 -22q0 1 5 2t7 2h4h3q3 -1 10 -2.5l13.5 -3t12 -3t7.5 -1.5q1 0 6 -2t10.5 -4t10.5 -4t6 -2q2 -1 12.5 -3t12.5 -3l7 -3.5l5 -2.5v-4q-28 0 -52 7q-12 3 -31.5 9l-33 10t-15.5 5v3z" />
<glyph unicode="L" horiz-adv-x="574" d="M17 324q0 -16 5 -36t15.5 -37.5t25.5 -29.5t35 -12q17 0 32 8t26 20.5t17.5 28.5t6.5 32q0 19 -8.5 32.5t-18 24l-18 20t-8.5 21.5q0 7 5 9.5t5 8.5q0 7 -7 7t-12.5 -5.5t-9.5 -13t-6 -16t-2 -13.5q0 -16 7.5 -28.5t17 -23.5t17 -21.5t7.5 -22.5q0 -20 -12 -36.5 t-33 -16.5q-19 0 -33 10t-23.5 25t-14 33t-4.5 34q0 56 31.5 99t79.5 69q22 -20 38 -49.5t26.5 -62.5t16 -67t5.5 -62q0 -12 -0.5 -28t-3 -31.5t-8 -29.5t-16.5 -23q-7 -5 -19 -8.5t-18 -6.5q-20 -10 -41 -22t-38 -27.5t-27.5 -35.5t-10.5 -46q0 -23 18 -40t41 -22 q3 0 13 -0.5t13 -0.5q51 0 99 19t89 49l16 11t16.5 13t12.5 15.5t5 19.5h-7q-20 -24 -46 -45t-56 -36t-62 -24t-64 -9h-23q-20 6 -37.5 19t-17.5 36q0 27 23 43.5t53.5 26t62.5 13t50 3.5q33 0 64.5 -4t60 -14.5t53 -29t43.5 -47.5h4q6 0 11.5 10t6.5 12l86 98v3q0 6 -7 6 h-2l-19 -18q0 -1 -2 -1h-4q-9 0 -12.5 2.5t-11.5 7.5l-11.5 5.5t-15 7.5t-14.5 7t-9 4q-20 9 -45 15t-46 10h-46h-46q-1 0 -6 -1t-11.5 -2l-13 -2t-9.5 -1q-1 -1 -4.5 -2t-4.5 -1t-4 3v1v2q20 25 35 50t27 54q16 39 27.5 72t18.5 72q2 12 2.5 22t0.5 19t-0.5 19.5t-0.5 24.5 q15 0 30 -14.5t28.5 -34t23.5 -40.5t14 -33q5 -19 5.5 -44t0.5 -45v-43q0 -1 -1 -9t-2 -12q-3 -14 -8 -29t-5 -29h10q2 16 5 28.5l6 25t5 26.5t2 32q0 55 -9.5 103.5t-48.5 90.5q-5 5 -11 12.5t-13.5 14.5t-16 11t-17.5 2q-6 45 -16 84.5t-33 78.5l-0.5 1t-0.5 2q0 5 3.5 7 t7.5 2h5q36 -25 68.5 -34t76.5 -9q43 0 74.5 25.5t56.5 57.5q0 1 1.5 4t1.5 5v3h-9q-22 -24 -48 -32t-57 -8q-20 0 -38 6.5t-35 18.5q-6 3 -10 10.5t-7 14.5t-6 12.5t-6 5.5h-1l-1 -1q-64 -64 -138 -122t-159 -92q-7 -5 -7 -10q7 0 13 2t12 2q5 0 13 -3.5t15.5 -8t13 -9.5 t5.5 -8q0 -1 -10.5 -10l-24 -20.5l-26 -22.5t-16.5 -16q-2 -4 -9.5 -14.5t-9.5 -13.5q-12 -20 -15 -42.5t-3 -44.5zM114 377h4q9 -13 17.5 -22.5l16 -18.5t12 -20t4.5 -27q0 -3 -0.5 -9t-0.5 -7l-6 -12h-2q0 20 -7 33.5t-15.5 26t-15.5 25.5t-7 31zM182 590q0 7 6 10.5 t13 3.5h3q21 -17 35.5 -42t23.5 -53.5t13.5 -58.5t4.5 -55v-42q-1 -2 -2 -12.5t-1 -15.5q-2 -7 -4 -18.5t-3 -11.5h-1q0 48 -2 93t-18 91q-7 18 -15 34.5t-19 32.5q-2 3 -10.5 13.5t-10.5 14.5q-1 1 -6.5 5.5t-5.5 6.5q-1 0 -1 4zM265 282v3h3v-3h-3z" />
<glyph unicode="M" horiz-adv-x="768" d="M18 304l1.5 -2.5t1.5 -3.5q1 -6 1 -14t1.5 -15t6 -12t14.5 -5q14 0 22 6t14.5 13.5t15.5 14t26 6.5q13 0 19 -9t6 -20q0 -18 -10 -32t-24 -25.5t-29.5 -22.5t-25.5 -23q-17 -19 -25.5 -45t-8.5 -51q0 -54 30 -97.5t75.5 -74.5t99.5 -47.5t102 -16.5v7q-43 4 -89.5 18.5 t-85.5 40t-64 63t-25 87.5q0 56 37 101q10 12 22 22t22 21t17 24t7 31q0 26 -14 45.5t-42 19.5q-14 0 -22.5 -6.5t-16 -14l-14.5 -14t-17 -6.5t-10 8q0 6 2 10.5t2 10.5t-3.5 10.5t-10.5 4.5q-2 0 -5 -0.5t-3 -4.5v-2zM18 467q0 -14 7 -23.5t17.5 -16t22.5 -9.5t23 -3h13 l16 5.5t18 6.5q7 3 18.5 14.5t23 25t20 27.5t8.5 22q0 3 -1.5 8t-6.5 5q-2 0 -7.5 -10.5t-14.5 -23.5t-21.5 -23.5t-28.5 -10.5q-17 0 -27 12t-10 29q0 40 25 67.5t55 47.5q11 8 20.5 13.5t23.5 5.5q22 0 32.5 -16t12.5 -36q0 -5 0.5 -15t1 -21.5t1 -21t0.5 -13.5v-18 t0.5 -37t0.5 -43v-34v-27q0 -18 -0.5 -39t-0.5 -40v-26q-1 -11 -2 -25.5t-4 -28.5t-8.5 -27t-15.5 -20q-4 0 -7 -3q0 -1 0.5 -6t-0.5 -6q0 -3 -19 -12.5t-41.5 -24.5t-41.5 -35.5t-19 -45.5q6 0 11.5 4.5t10.5 10t9 11.5t8 9q26 22 64 22q10 0 22.5 -2.5t24 -8t20.5 -14 t13 -19.5q0 -1 1 -8.5t2 -9.5q5 -10 12 -10q6 0 9 7l14 20l21.5 30.5l21.5 30.5l14 20l12 16t17 12h5q1 -14 6.5 -32.5t14.5 -35.5t22.5 -28.5t31.5 -11.5q9 0 18 8.5t17 20.5t15 24t13 18q5 6 14.5 16.5l19 21l17.5 19l10 10.5t9 8t9 8v6h-9l-55 -52q-1 -1 -6.5 -3t-8.5 -3 h-2q-21 0 -33 10t-18 25t-7.5 33t-1.5 34v20q20 29 43.5 53l48.5 49q11 11 25.5 23.5t29.5 18.5q1 0 4 -3q25 -45 32.5 -96t7.5 -102q0 -110 -52.5 -188t-147.5 -129q-27 -14 -58 -27t-63 -13q-5 0 -7.5 2t-6.5 2q-6 0 -6 -5v-2q1 -2 2 -7t6 -5h1q1 0 4.5 1.5t4.5 1.5 q2 1 7 2t6 1q77 13 146 54.5t121 102t82.5 135t30.5 153.5q0 47 -10 91.5t-26.5 87.5t-37 84.5l-40.5 82.5q-6 20 -10.5 44t-1.5 45q-3 3 -6 3h-1h-2q-3 0 -6 -3l-13.5 -17l-20 -26t-20.5 -26l-14 -17q-11 -13 -20 -27t-23 -25l-3 3q-2 38 -12 70.5t-31 64.5q-2 4 -6 4 q-2 0 -10 -12l-17.5 -26.5l-17.5 -27t-10 -14.5q-5 -6 -13.5 -14t-16 -16t-13.5 -13.5l-6 -5.5h-8v134q0 3 -2.5 3.5t-4.5 0.5h-3l-6.5 -6.5t-9 -9.5t-9 -9.5t-6.5 -5.5q-1 -1 -4.5 -3t-4.5 -3q-36 -18 -82 -35t-87.5 -40.5t-69.5 -57t-28 -85.5zM263 142v3q0 3 5.5 8.5 t13 11.5l14.5 12t10 11q23 42 27 87.5t4 93.5q0 36 -1.5 72t-1.5 72v3q0 5 1 20t2 20q2 2 6.5 7t10 10t10.5 10l7 7q8 7 10 9.5t9 2.5t12 -4.5t8.5 -11.5t5.5 -14t4 -13v-75v-75q0 -14 -1.5 -49t-3 -74t-3 -74t-1.5 -49q-3 -2 -12.5 -11.5l-12.5 -12.5t-11 -13t-14 -15h-1 q-2 0 -7 3l-12 7l-13 7.5t-9 4.5t-11 2t-17 2.5t-17 3t-11 1.5zM490 286v21q0 59 2 118l4 119q5 16 21 31.5l28 26.5h2q1 0 10.5 -20l21 -45.5l22 -49.5t15.5 -32l9 -17.5t6 -13.5l0.5 -2t0.5 -4q0 -6 -5.5 -11.5t-12.5 -10.5t-14.5 -9.5t-11.5 -8.5l-95 -95z" />
<glyph unicode="N" horiz-adv-x="670" d="M17 313q0 -5 2 -12t9 -7q8 0 14.5 7t10.5 12h3q5 0 5.5 -3t0.5 -8q0 -11 -5 -18.5t-5 -18.5q0 -15 7 -25t24 -10q22 0 41 13t30 30q1 3 3 10t4.5 15l4.5 14.5t3 9.5q4 12 14 19t20 11.5t17.5 8.5t7.5 11q-30 0 -49 -9.5t-31 -24t-19 -31.5l-13 -31.5t-13.5 -24 t-20.5 -9.5q-17 0 -17 19q0 17 8 30.5t8 31.5q0 5 -7 10t-12 5q-9 0 -18.5 -11t-12.5 -14h-14zM40 -14q0 -54 31.5 -90t85.5 -46h28q3 0 6 -3h17q36 0 70 15.5t63.5 41t51 57.5t31.5 64q8 25 14 52.5t4 54.5q0 4 -1 15t-2.5 23.5t-3 23t-2.5 15.5q-3 13 -10 27.5t-15.5 29 t-18 28t-17.5 22.5q-4 3 -7.5 3.5t-7.5 0.5q0 -12 13.5 -24.5t19.5 -22.5q23 -36 30 -74t7 -80v-33q0 -3 -2 -11.5t-4 -18t-3.5 -17.5t-2.5 -11q-7 -11 -11.5 -23t-10.5 -23q-14 -26 -35 -48t-47 -39t-54.5 -26.5t-57.5 -9.5q-63 0 -105 30.5t-42 95.5q0 17 5.5 34.5 t15.5 31.5t25 23t34 9t41 -4t40 -13.5t30 -25t12 -38.5v-2q-2 -2 -9 -11.5t-7 -15.5h10q28 35 59 69.5t64 65.5v7q-6 0 -12 -3.5t-11.5 -8.5t-9.5 -9.5t-7 -7.5h-5q-4 0 -13.5 6t-19 14t-17 15.5t-7.5 10.5v3q26 27 43.5 65.5t28.5 80.5t16 83.5t5 75.5v10v17t-0.5 16.5 t-0.5 10.5l-3.5 17l-5.5 26l-5.5 26l-3.5 17q-2 7 -5.5 13.5t-3.5 13.5v3q8 14 22 19.5t28 5.5q17 0 29 -8t22 -18.5l20 -22t23 -18.5q1 -1 7 -2.5t13.5 -4l13.5 -4.5t6 -3v-2q-17 -15 -32.5 -26.5t-35.5 -22.5q-2 -1 -7 -2t-5 -6v-1q20 -1 22.5 -10t5.5 -27q-3 -188 9 -374 q4 -24 9.5 -37.5t24.5 -29.5q3 -4 9 -7t6 -9q0 -12 -7.5 -25t-7.5 -36q0 -9 8 -18.5t17 -9.5q21 0 21 19q0 4 -1.5 8t-6.5 4q-3 0 -5.5 -1.5t-5.5 -1.5q-8 0 -10.5 5.5t-2.5 10.5q0 26 15 45.5l29 39.5l29 39.5t28 40t21 43t8 48.5q0 21 -9 39t-19.5 35t-19 35t-8.5 39 q0 14 7.5 30t24.5 16q10 0 14.5 -5t6 -10.5t2.5 -10.5t5 -5q5 0 5 5v8q0 14 -9 21t-22 7q-15 0 -25 -9t-15 -22t-7 -27.5t-2 -26.5q0 -20 6 -38t13.5 -36t14 -36t6.5 -38q0 -5 -0.5 -17t-3 -24t-7.5 -21.5t-13 -9.5q-16 0 -26 8.5t-15 21t-7 27t-2 26.5q0 4 -0.5 19t-1 32 t-1 32t-0.5 19v3q0 4 -0.5 18.5t-1 32t-1 32t-0.5 18.5v5q0 5 0.5 6.5t2.5 6.5v83q1 25 10.5 46t24.5 39.5t32.5 35l34.5 32.5q5 6 12 10.5t7 14.5h-10q-1 0 -11.5 -9.5t-16.5 -15.5t-13.5 -14.5t-16 -17t-17.5 -14.5t-19 -6q-17 0 -28.5 14t-15.5 29q-18 20 -35.5 31.5 t-44.5 11.5q-23 0 -44 -8.5t-39 -22.5q-2 -1 -5.5 -6t-8 -10l-8.5 -9.5t-7 -4.5h-1q-1 0 -3.5 2.5l-3.5 3.5q-11 16 -21.5 28t-25.5 27v16h-2q-1 0 -3 -1l-3 -3l-27.5 -46t-33.5 -43q-14 -14 -32 -29.5t-32 -31.5l-12 -8l-18.5 -12l-18.5 -12t-13 -8l-6 -2t-9 -4 q-1 0 -4.5 -1t-4.5 -2l-1 -1q0 -5 3 -5h7q14 0 24.5 6.5t24.5 6.5q31 0 55 -15t40 -41q17 -31 31.5 -65.5t14.5 -70.5v-2q0 -6 -0.5 -16.5l-1 -20t-1 -17l-0.5 -7.5q-1 -9 -4 -26.5t-9 -34.5t-14 -30.5t-19 -16.5q-2 0 -8 -1.5t-13.5 -3t-14 -3t-7.5 -1.5q-24 -6 -46 -20.5 t-38.5 -34.5t-26 -44t-9.5 -50zM194 583l2 2.5t4 3.5h1h2q27 -18 45.5 -44t30.5 -56t17 -62t5 -63q0 -17 -1.5 -34.5t-1.5 -34.5v-10q3 8 5.5 20l3.5 17v45q0 37 -5 68t-15.5 59.5t-28.5 54.5t-43 52v3q0 7 6 7q3 0 3 -1q27 -21 45.5 -49.5t30 -60t16 -65.5t4.5 -67 q0 -53 -16 -97.5t-37 -92.5q-2 -7 -9 -12v4q0 10 3.5 18.5t5.5 17.5q11 38 16.5 70t5.5 71q0 21 -2 44t-7 46t-13 45t-21 40q-1 1 -6 6.5t-11 11.5t-11 11.5t-6 6.5q-1 2 -5.5 8t-6.5 8t-4 5.5zM243 144v3h3z" />
<glyph unicode="O" horiz-adv-x="626" d="M17 265q0 -59 24 -108.5t64.5 -85.5t93 -56.5t108.5 -20.5h20q3 0 11.5 1.5l17.5 3t17.5 2.5t11.5 2q11 8 26 12t26 10q7 4 21.5 15l29 23l25.5 21t12 9l1 -1q4 -5 3.5 -12.5t-0.5 -12.5q0 -35 -13 -65.5t-33 -59.5q0 -3 -3 -3q-1 0 -4.5 -1t-4.5 -2q-5 -4 -9 -12t-9 -13 q-35 -26 -72.5 -39t-81.5 -13q-52 0 -98 21t-67 71l-9 22t-4 24q0 11 2 22t2 22q-9 0 -11 -6t-2 -13q0 -32 4.5 -53t14 -37.5t25.5 -31t39 -32.5q4 -2 13.5 -5l21 -6.5t21.5 -6l14 -3.5q2 0 17 -0.5t23 -0.5q5 0 20 0.5t20 0.5q73 13 121 60t69 115q1 1 2 6t1 6 q6 13 9.5 24.5t3.5 26.5q0 11 -3.5 21.5t-3.5 21.5v0q0 1 1 1q0 2 4 8t5 8l7 14l11 22l11.5 22.5l7.5 14.5t5 12t4 10q6 22 7.5 45.5t1.5 46.5q0 83 -35.5 149.5t-105.5 110.5q-15 10 -27.5 15t-24 10.5t-22.5 13.5t-24 23q-2 6 -6.5 15.5t-12.5 9.5l-1 -0.5t-2 -0.5 q-11 -29 -30 -49t-37 -43q-2 -3 -7 -8.5l-10.5 -12l-10.5 -12t-6 -7.5q-19 -21 -37 -38t-31.5 -34.5t-21.5 -39.5t-8 -54q0 -24 11 -44t27.5 -35.5t36.5 -28.5t38 -23q23 -9 46 -12.5t46 -9.5l15.5 -4l24.5 -6.5l24 -6.5t16 -4q3 -2 9.5 -5.5t13.5 -8l13.5 -8.5t9.5 -6 q4 -3 10.5 -9t12.5 -13t10 -14.5t4 -13.5t-3 -11t-6 -9q-14 -19 -27.5 -32t-28.5 -21t-33 -11.5t-41 -3.5q-61 0 -113 21.5t-90.5 59t-60 89.5t-21.5 112q0 64 19 118t55 106q4 6 18.5 18l25 20.5t12.5 9.5q0 5 -7 5l-3 -1q-2 -1 -10.5 -4t-10.5 -5q-81 -63 -128 -141 t-47 -183zM164 391q0 9 4 26.5t11.5 35.5t17 31t21.5 13q2 0 8 -6.5l13.5 -14.5l14.5 -15.5t11 -9.5q33 -18 71 -27t73 -21t64.5 -33t46.5 -63q2 -4 6 -16.5t6 -17.5q1 -2 2 -6.5t1 -5.5v-74q0 -5 -6 -9q-14 13 -26 27.5t-26 27.5q-22 21 -47 33.5t-52 20t-55.5 11 t-57.5 6.5q-2 1 -9 3t-9 3q-17 4 -32 10t-26 15.5t-18 23t-7 32.5zM182 126h10q10 6 22.5 12.5t24.5 6.5q20 0 36 -9.5t35 -9.5q26 0 34.5 14.5t6.5 37.5l3 3h2q9 0 16.5 -7.5t17.5 -7.5q11 0 11 13v7q0 5 -5 5t-4.5 -6.5t-6.5 -6.5q-9 0 -16.5 6.5t-16.5 6.5h-6q-4 0 -4 -4 v-27q0 -4 -6.5 -5t-8.5 -1q-15 0 -29 4.5t-30 4.5q-5 0 -19 -2.5t-29 -7t-26.5 -11.5t-11.5 -16zM286 566q0 7 6.5 12t13.5 5q6 0 16 -10.5t17 -13.5q30 -17 60.5 -28.5t59.5 -30.5q14 -9 24.5 -21.5l21.5 -24.5q32 -37 51.5 -82t19.5 -96h-4l-2 10t-4 15q-11 49 -33.5 96.5 t-64.5 78.5q-15 11 -45.5 18t-61 15.5t-53 21.5t-22.5 35z" />
<glyph unicode="P" horiz-adv-x="742" d="M17 512q0 -1 1 -4.5t2 -4.5q16 -27 33.5 -43t49.5 -16q12 0 27.5 3t28.5 10t22 18t9 26q-9 0 -15.5 -11.5t-13.5 -17.5q-11 -10 -26 -12.5t-29 -2.5q-30 0 -55 18.5t-25 52.5q0 15 7 27.5t18 22t24.5 15t27.5 5.5q25 0 45.5 -12t43.5 -19h24q15 0 24.5 3.5t21.5 3.5 q5 0 6.5 -4t2.5 -9q3 -107 6.5 -214t3.5 -215v-27q-2 -5 -7 -7h-1h-2q-2 1 -12 3.5t-12 3.5q-1 0 -6.5 0.5t-13 1l-15 1t-11.5 0.5h-5q-21 0 -50.5 -8t-56 -23t-45 -36t-18.5 -48t18.5 -39t42.5 -12q42 0 77.5 15.5t70.5 39.5q2 2 5.5 6t3.5 8v2q-3 0 -3 3h-2h-1 q-33 -26 -69 -44t-78 -18q-9 0 -19 2t-18.5 6.5t-13.5 12t-5 18.5q0 18 12.5 31t30.5 20.5t37.5 11t33.5 3.5q38 0 69 -17t56 -45q1 -2 1 -8v-9v-9t-1 -7q0 -5 -2 -17l-4.5 -26t-5 -26l-3.5 -17q0 -1 -1.5 -3t-1.5 -3q-1 -2 -4.5 -14t-4.5 -14q-11 -31 -34 -58 q-3 -3 -9.5 -8l-13 -10l-12 -9.5t-5.5 -7.5q0 -5 3 -5h6q13 0 23.5 5.5t19.5 12.5q50 38 73.5 94.5t28.5 117.5q2 6 8 6q14 0 26.5 -3t26.5 -3q36 0 71 11t66.5 30t59 44t48.5 53q17 23 29 47.5t23 50.5q17 36 28.5 72t11.5 77q0 40 -15 74.5t-38.5 64.5t-52.5 56.5 l-56 50.5q-14 16 -23.5 32.5t-9.5 38.5h-10q-15 -25 -34 -45t-40 -37t-44 -32.5t-45 -32.5h-5q0 30 1.5 52t8.5 40t21 34t39 36v9h-10q-3 -3 -12 -11t-19.5 -16.5t-19.5 -16.5t-13 -11q-14 -11 -31.5 -22.5t-35.5 -11.5q-20 0 -33 8.5t-26 18t-29 18t-40 8.5q-1 0 -3.5 -0.5 t-3.5 -0.5q-27 -6 -51 -16t-41 -25t-27 -36.5t-10 -52.5v-23zM348 448v55q2 3 4.5 7.5t7.5 4.5q3 0 3 -3q2 -5 4 -17t2 -17q-1 -66 1.5 -131t2.5 -131v-13q0 -10 -1 -13q-1 -1 -3 -5.5t-3 -6.5v-1v-2l3 -3h2h1l80 63t77 66q26 25 50 52t51 52h1q5 0 9 -8l5 -10 q8 -23 10.5 -44.5t2.5 -45.5q0 -44 -11.5 -84t-31.5 -78l-3 -3t-4 -3h-1h-2q-23 8 -44.5 13t-47.5 5q-12 0 -35.5 -4t-48 -10t-46 -14.5t-29.5 -17.5l-3 7q1 85 -1 169.5t-2 170.5zM351 80v9q12 2 25 9.5t24 12.5q31 13 59.5 17.5t61.5 4.5h8t12.5 -0.5t12.5 -0.5h9 q11 -1 21 -6t21 -3q-8 -20 -23 -38.5t-34.5 -32.5t-41.5 -22t-44 -8q-13 0 -32 2.5t-36.5 9.5t-30 18t-12.5 28zM360 -101q0 -8 1.5 -13t4.5 -8.5t7 -6.5t9 -9h15q8 0 16 2t16 2q9 0 11.5 -3.5t2.5 -11.5q0 -6 -3 -10.5t-6.5 -8.5t-6.5 -9t-3 -11q0 -8 8.5 -17t16.5 -9 q6 0 6 6q0 4 -3.5 6t-7 3t-7 2.5t-3.5 5.5q0 5 6 8l13.5 6.5t14 8.5t6.5 15q0 17 -15.5 24t-29.5 7q-8 0 -16 -3.5t-16 -3.5t-13.5 4t-5.5 12q0 13 11.5 20.5t22.5 10.5h23q19 0 36.5 -3.5t36.5 -3.5q30 0 59.5 5.5t53 19t38 36.5t14.5 58q0 7 -3 19.5t-8 25t-13 21.5t-17 9 q0 -11 7.5 -19t11.5 -18q5 -11 6 -22.5t1 -22.5q0 -26 -11.5 -45t-30 -31.5t-41.5 -19t-46 -6.5q-17 0 -31.5 3t-28.5 6.5t-28 6.5t-30 3q-3 0 -12 -0.5t-11 -0.5q-15 -3 -21.5 -15t-6.5 -25zM440 310v50v63q0 17 0.5 42.5l1 49.5t1 41l0.5 17l15 16h2h1q1 0 2 -1.5l1 -1.5 l31 -52q17 -10 31.5 -22.5t29.5 -23.5l20.5 -14t16 -12.5t15 -14t16.5 -18.5v-3q0 -5 -6 -12.5t-14 -15.5l-15.5 -15.5t-10.5 -11.5l-117 -110q-1 -2 -5.5 -5t-6.5 -4l-0.5 -0.5t-1.5 -0.5l-1 1q-1 1 -2 4t-1 5q-3 27 -3 49z" />
<glyph unicode="Q" horiz-adv-x="629" d="M17 280q0 -59 22.5 -111t61.5 -90t91 -60t111 -22q16 0 33.5 0.5t32.5 5.5q9 3 21 8t21 5l1 -1q6 -4 13 -15.5t9 -14.5l6 -12.5l6 -12.5t5 -8l8.5 -13l8.5 -13l6 -9q1 -2 4 -6l6.5 -8.5t6.5 -8t4 -4.5q32 -35 69 -59.5t86 -24.5q3 0 13 0.5t13 0.5q8 4 17.5 9.5t17.5 12 t13.5 15t5.5 19.5q-12 0 -22 -5t-21 -5q-15 0 -31.5 5.5t-32 13.5t-29 18.5t-22.5 20.5l-108 129v3q0 4 3 6q2 2 8 6.5l12 9l12 9t8 6.5h3q5 0 6 -3q1 -2 1 -7v-7q0 -16 -5 -31t-5 -31v-1l3 -3h2q3 0 7.5 10t8.5 23t7 26t3 18v46q18 28 31.5 52t23 49t14.5 52.5t5 62.5 q0 70 -26.5 135t-87.5 105q-17 11 -33.5 20t-31.5 19.5t-27 24.5t-21 34q-3 3 -6 3h-2h-1q-1 0 -4 -3q-8 -11 -14.5 -21t-15.5 -22l-92 -92q-21 -20 -38 -34.5t-29 -30.5t-18.5 -36.5t-6.5 -50.5q0 -18 6.5 -37.5t17.5 -33.5q22 -27 49 -43t56.5 -26.5t60.5 -18.5t61 -20 q13 -5 30 -14t31.5 -21t24.5 -27t10 -31q0 -8 -5.5 -16.5t-13.5 -16t-16.5 -14t-14.5 -10.5h-7q-11 0 -18 6.5t-15 12.5q-17 12 -41 18t-45 6q-17 0 -38 -3.5t-32 -17.5h2h1q2 0 12.5 2.5t12.5 3.5h5q10 0 26 -3t30 -9t24.5 -15t10.5 -21q-62 0 -115 21.5t-91 59.5 t-59.5 90.5t-21.5 114.5q0 33 9.5 75t28 82t45.5 73t62 47v7q-24 0 -43.5 -16.5l-36.5 -30.5q-65 -51 -104.5 -124.5t-39.5 -156.5zM96 20q0 -45 15.5 -77t42.5 -52.5t62.5 -30.5t76.5 -10q14 0 41.5 5.5t54.5 15t47 24t20 32.5h-4q-26 -22 -56.5 -40.5t-65.5 -21.5 q-5 0 -20 -0.5t-20 -0.5q-54 0 -94 16t-72 59q-9 12 -15 28t-6 31q0 13 3 25.5t3 24.5q0 4 -6 4q-5 0 -6 -3q0 -3 -0.5 -14.5t-0.5 -14.5zM170 400q0 29 13.5 55t35.5 45q2 1 6.5 3.5t6.5 2.5l6.5 -7.5l15 -16.5l16.5 -17.5t11 -10.5q20 -13 42.5 -22t45.5 -15 q35 -9 65 -25.5t52.5 -40.5t35.5 -55.5t13 -69.5q0 -3 -0.5 -12.5t-1.5 -19.5t-3 -18t-6 -8l-10 11l-23 25l-26 27t-19 17q-3 3 -10 7t-13.5 8.5t-12.5 8t-7 4.5q-17 9 -40.5 14t-49.5 9.5t-51.5 11t-46 17t-33 28t-12.5 44.5zM172 134q14 0 28 9.5t32 9.5q9 0 17 -4 t16 -8.5t16.5 -8t17.5 -3.5q22 0 35.5 11.5t7.5 37.5q1 3 6 3q9 0 15 -8t17 -8q5 0 11 1.5t6 8.5q0 3 -0.5 8t-5.5 5t-6 -5.5t-8 -5.5q-10 0 -17 6.5t-17 6.5q-11 0 -11 -10q0 -5 2 -8.5t2 -7.5v-2l-6 -6h-11q-10 0 -18.5 2t-16.5 8h-62q-5 0 -13.5 -3t-16.5 -7.5t-14 -10.5 t-6 -11zM302 570v2q0 5 8.5 9.5t12.5 4.5q1 0 2 -0.5t2 -0.5q23 -22 46 -33.5t52 -27.5q32 -17 59.5 -42.5t47.5 -56t31.5 -66t11.5 -72.5q-2 0 -7.5 16.5l-12 37t-13.5 39.5t-10 25q-14 20 -30.5 40t-37.5 33q-22 14 -45.5 19.5t-45 12.5t-40.5 19.5t-31 40.5zM572 264v12 h3v-12h-3z" />
<glyph unicode="R" horiz-adv-x="710" d="M17 404q0 -19 4.5 -40t15 -38t26 -28.5t38.5 -11.5q12 0 20.5 3t16 6.5t15 6.5t16.5 3q17 0 26 -13v-12q0 -19 -8.5 -26t-21 -10.5l-25.5 -7t-22 -14.5q-2 -2 -5.5 -8t-3.5 -9q0 -12 7.5 -18t18.5 -6q0 8 -4 13.5t-4 13.5q0 6 14.5 9.5t32 12.5t32 27t14.5 52 q0 12 -3 22.5t-3 21.5q5 0 10 -1.5t10 -1.5q0 7 -1.5 9t-7.5 4q-21 8 -41.5 23.5t-37.5 31.5q-4 3 -9 10t-10.5 14t-11 12t-10.5 5q0 -5 2.5 -12.5t4.5 -10.5l49 -49q0 -3 -3 -3q-1 0 -7.5 -1t-7.5 -2q-3 -1 -12.5 -5.5t-12.5 -6.5q-10 -6 -16.5 -12.5t-20.5 -6.5 q-20 0 -34.5 17t-14.5 36q0 29 22.5 45t48.5 16q43 0 73 -22t48.5 -56t27 -73.5t8.5 -75.5q0 -10 -2 -28t-7.5 -36t-14.5 -32t-23 -17q-20 -5 -38.5 -8t-37.5 -11t-39.5 -20.5t-37 -29t-27 -37t-10.5 -42.5q0 -18 7.5 -30.5t19.5 -21t27.5 -12t31.5 -3.5q47 0 86 22t73 51 l13.5 13t8.5 9v8q-7 0 -12.5 -6t-9.5 -8q-17 -12 -34.5 -26t-36.5 -25t-39.5 -18.5t-42.5 -7.5q-13 0 -27.5 2.5t-27 9.5t-20.5 17.5t-8 27.5q0 25 15 40t37 23.5t45.5 11.5t41.5 3q52 0 97 -24t68 -71q2 -3 3 -3h5q1 0 6.5 6l12 13.5t12 14.5t7.5 9q18 21 33.5 37l36.5 36 v10q-9 0 -17 -7t-13 -12h-6q-35 28 -68.5 40.5t-76.5 21.5l-3 3q3 3 9.5 11l14 17.5l14 18t8.5 11.5q13 17 18.5 34t12.5 36l33 89t16 92q0 24 -6 45.5t-6 44.5q14 0 26 5.5t22.5 14t20.5 18.5t20 19q0 1 3 1q5 0 5 -3q0 -2 4 -7q2 -2 7.5 -9t7.5 -9q12 -14 26 -24t23 -25 q5 -8 6 -15.5t1 -16.5q0 -25 -10.5 -47t-27.5 -39.5t-38.5 -30.5t-43.5 -20q-13 -4 -25 -4q-11 0 -24 -2q-3 -1 -3 -4v-5v-6t3 -5h24l25 -40t18 -44q9 -32 16 -64.5t16 -63.5t23 -60t37 -54q11 -12 22.5 -21.5t28.5 -9.5q9 0 20.5 14.5t23.5 32t24.5 32t23.5 14.5q6 0 10 -9 t4 -14v-46q0 -4 -7 -17.5t-12 -18.5q-2 -2 -6.5 -7t-10 -10.5l-10 -10l-6.5 -6.5q-14 -9 -33 -12.5t-35 -3.5q-14 0 -27 4.5t-26 9.5t-26 9.5t-27 4.5q-11 0 -23.5 -3t-22.5 -9.5t-16.5 -16.5t-6.5 -23q0 -11 5.5 -16.5t13 -8t16 -4t14.5 -5.5q5 -3 5.5 -8.5t7.5 -9.5v8 q0 12 -10 20q-3 0 -10.5 1.5t-14.5 4.5t-12.5 7.5t-5.5 11.5q0 13 13 18h18q31 0 59.5 -9.5t60.5 -9.5q27 0 53 9.5t47 26.5t34 40.5t13 52.5q0 19 -3 31.5t-9 29.5v2q0 8 7 12t7 12q-8 0 -12 -4t-10 -4l-0.5 0.5t-1.5 0.5q-3 0 -6 3q-2 1 -7.5 5.5l-12 10t-12.5 9.5t-8 5 l-8.5 5.5t-11.5 6.5t-10.5 5t-5.5 2h-17q0 -6 13.5 -13.5l30 -16t30 -17.5t13.5 -18q0 -6 -6.5 -9t-11.5 -3q-17 0 -31 12t-25.5 29t-20 34.5t-15.5 28.5q-2 7 -8 24l-13 36l-13 36t-9 24q-1 3 -4.5 10l-7.5 15l-7.5 14.5t-5.5 9.5l-12 12v2v1q0 1 1.5 2l1.5 1 q25 10 51.5 28t48.5 42t36.5 51.5t14.5 56.5q0 17 -6 38t-19 33l-52 49q-1 0 -2 3.5t-1 5.5q-1 3 -2 15t-1 16h-13q-32 -39 -71.5 -74.5t-78.5 -66.5q-2 -2 -6 -4l-6 -3h-2q-3 0 -11 18t-20 39t-27 39t-32 18h-3q-25 -26 -50.5 -50t-60.5 -36v-10q10 0 19 2t18 2 q33 0 52.5 -22.5t30 -54t13.5 -65.5t3 -56q0 -31 -3.5 -61t-12.5 -60q-1 -4 -3.5 -9.5l-2.5 -5.5h-3q0 25 6 50t6 51q0 40 -9 77.5t-28.5 66.5t-51 46.5t-75.5 17.5q-11 0 -21 -3t-21 -3q-4 0 -5 3q0 2 -0.5 8t-0.5 8q0 31 12.5 59t33.5 49t49 33t59 12q30 0 50 -9.5t37 -21 t34 -21t40 -9.5q6 0 14 2t15.5 6t13 10t5.5 13q0 9 -8 13.5t-8 11.5q0 6 8.5 7t9.5 1v6q0 2 -7 2.5t-10 0.5q-14 0 -14 -16q0 -1 0.5 -3l0.5 -2q1 -2 7 -8l8 -8v-3q0 -8 -8.5 -11.5t-14.5 -3.5q-11 0 -21.5 6.5t-19.5 11.5q-28 17 -56.5 29t-61.5 12q-56 0 -106 -31 q-5 -4 -9 -7.5t-10 -5.5q-23 -23 -39 -55.5t-16 -66.5q0 -8 2 -14.5t2 -13.5q0 -1 -6.5 -8.5l-15 -17l-16 -18t-9.5 -11.5q-8 -13 -13 -30.5t-5 -32.5zM379 102h9q17 6 37.5 12t39.5 10q3 1 3 6q0 6 -8 6q-3 0 -16.5 -2.5t-27.5 -7t-25.5 -11t-11.5 -13.5z" />
<glyph unicode="S" horiz-adv-x="652" d="M17 21q0 -41 25 -60t65 -19q30 0 50.5 8t46.5 20q5 3 14.5 8t19 11.5t16.5 13.5t7 13h-11q-26 -26 -62.5 -43.5t-74.5 -17.5q-15 0 -30.5 3t-28 10.5t-20.5 19.5t-8 30q0 19 8 32t21 21t29 12t32 4q27 0 50 -7.5t44.5 -20t41.5 -28l41 -30.5q27 -15 59 -23t63 -8 q61 0 107 31.5t84 76.5q1 0 2 1.5l1 1.5h2q4 0 9 -9t8.5 -21t6 -23t2.5 -14q0 -31 -11 -54t-30 -38t-44 -22t-53 -7q-2 0 -4 0.5t-3 0.5q-4 0 -16.5 1t-16.5 2l-59.5 21t-60.5 10q-23 0 -42.5 -11t-19.5 -37q0 -19 13.5 -25.5t30 -8.5t30 -4t13.5 -11q0 -6 -4 -8.5 l-8.5 -5.5t-8.5 -7.5t-4 -15.5t11.5 -15t19.5 -4q0 5 -3.5 7.5t-7.5 4.5t-7.5 4.5t-3.5 7.5q0 7 6 9.5t13.5 4.5t14 5.5t6.5 13.5q0 8 -5.5 16.5t-15.5 8.5h-56q-11 0 -17.5 9.5t-6.5 19.5q0 8 5 14t13 6h37q33 -14 66.5 -24t70.5 -10q29 0 60 8.5t56 26t41 42.5t16 58 q0 18 -3.5 33t-11.5 31q-4 6 -11.5 12.5t-7.5 12.5v3l12 53t7 56q0 53 -24 105t-71 81q-14 8 -29.5 13.5t-29.5 13.5q-6 2 -21 6l-32.5 8.5t-32.5 8t-21 5.5l-42 7.5t-48 13.5t-40 24t-17 41q0 24 16 38.5l33 28.5h3q7 0 10 -9.5t5 -11.5q22 -32 57.5 -45.5t72.5 -13.5 q34 0 60.5 10t55.5 27q0 1 2.5 2t3.5 1l55 55q6 6 10.5 19t4.5 23t-7 21.5t-17 13.5h-17q-23 0 -42 -8.5t-35.5 -22t-30.5 -30.5t-26 -34v-1v-2l3 -3h2h1q1 0 4 3l24 29.5t27.5 29t32 22t37.5 8.5q14 0 23 -6.5t9 -20.5q0 -18 -12 -32.5t-30 -25.5t-37.5 -17t-34.5 -6 q-36 0 -62 15t-48 44l-13.5 17t-8.5 21q0 8 3.5 15.5t3.5 15.5t-6 8h-4q-1 -23 -16.5 -41.5t-32.5 -32.5q-2 -2 -11 -9l-19.5 -15.5l-19.5 -15.5t-11 -9q-17 -14 -33 -29.5t-31 -32.5q-8 -12 -13.5 -25t-5.5 -28q0 -17 8 -36t23 -30q8 -5 21.5 -12t18.5 -19q13 2 26.5 0.5 t27 -5t27 -7.5t26.5 -6l89.5 -15.5t78.5 -24t63.5 -46t44.5 -80.5v-2q-3 0 -3.5 -1t-2.5 3q-6 12 -11 21t-10.5 17t-13 15.5l-17.5 17.5q-28 25 -63.5 39.5t-74 23t-77 14t-73.5 12.5q-21 4 -43.5 12t-42 20.5t-32 30.5t-12.5 42q0 2 0.5 8.5t0.5 8.5q2 5 6 9.5t4 10.5 q-11 0 -20 -11t-15 -26t-9 -30.5t-3 -24.5q0 -32 17.5 -55.5t37.5 -46.5q3 -3 3 -7q27 -16 53.5 -25t54.5 -13.5t57 -6.5l59 -4l40.5 -4t40.5 -6.5t38.5 -13t34.5 -22.5q18 -17 32 -36t14 -45q0 -23 -10 -41t-26 -31.5t-36.5 -20.5t-41.5 -7t-39 6.5t-34 17t-31 23t-31 24.5 q-31 23 -65 36t-73 13q-26 0 -58 -6t-60 -20t-47 -36.5t-19 -55.5zM38 219q0 -13 7 -22t17.5 -14.5t22 -8t21.5 -2.5q36 0 64 12.5t56 37.5l12 12t7 16q-7 0 -14.5 -5t-14.5 -12l-14 -13.5t-13 -10.5l-15.5 -7.5l-15.5 -7.5h-23q-29 0 -42.5 8t-8.5 41q-2 3 -5.5 6.5 t-7.5 3.5q-14 0 -23.5 -10.5t-9.5 -23.5zM353 90h8q35 17 68 25.5t72 8.5q14 0 28.5 -2t28.5 -2q0 8 -8 12t-18.5 5.5t-21.5 1.5h-16q-20 0 -38.5 -3.5t-39.5 -8.5q-4 -1 -14.5 -4.5t-21 -8.5t-19 -11.5t-8.5 -12.5zM369 464q0 -6 8 -6q3 0 8 7.5t10 17t8.5 18.5t3.5 11v1 q-3 3 -4 3h-1h-2l-6 -6q-2 -2 -5.5 -8t-7 -13t-7 -13t-4.5 -9l-0.5 -1t-0.5 -2z" />
<glyph unicode="T" horiz-adv-x="582" d="M18 501q0 -23 14 -35t36 -12q26 0 50.5 10t46.5 24q16 14 32.5 31t29.5 36.5t21 41t8 44.5q14 0 24.5 0.5t25.5 -3.5q1 0 9 -3t18 -6t20.5 -6.5l16.5 -5.5l6 -3t4 -5v-2q-20 -21 -37.5 -37.5t-31.5 -34.5t-22 -40t-8 -55q0 -28 12 -51t26.5 -45t27 -44.5t14.5 -47.5 q1 -3 0 -13.5t-1 -14.5h-2q-9 31 -24.5 58.5l-30.5 54.5t-26 55.5t-11 62.5q0 38 15 67t40 55v10l-1 -0.5t-2 -0.5q-1 -1 -5.5 -4t-6.5 -5q-4 -3 -13 -11.5l-11 -10.5q-3 -3 -8.5 -8l-11.5 -11l-11 -11l-6 -6q-5 -5 -17 -18.5l-25 -29l-25 -29t-16 -18.5q-9 -15 -22 -29.5 t-13 -33.5q4 0 10.5 8l14 18t14 20t11.5 14q3 -2 6 -11.5t6 -20.5t5.5 -21.5t4.5 -14.5q6 -14 14.5 -30.5t19.5 -27.5q12 -14 28.5 -30.5t32 -35.5t26.5 -39.5t11 -41.5q0 -10 -2 -20t-11 -17q-4 0 -14 0.5t-21 0.5t-21 -0.5t-14 -0.5q-29 -2 -68.5 -10.5t-74.5 -25.5 t-59.5 -43.5t-24.5 -63.5q0 -23 11 -39t28.5 -26.5t38 -17t39.5 -10.5h38q27 0 58.5 6t63 18t58.5 29t45 39q1 1 3 6t3 6l3 1q1 0 2 -0.5l1 -0.5q3 -2 9 -10t13 -16.5t12 -15.5t6 -7q5 0 7 1.5t5 4.5l46 46q1 1 5 4.5t9 7.5t10 7.5t7 5.5q4 3 11 6.5t13.5 7.5t11 9t4.5 12 q-11 0 -19.5 -5.5t-18.5 -5.5q-11 0 -26 10t-25 15l-11 5.5t-14 6.5t-12 6t-6 3q-2 1 -12.5 4l-24 7l-27.5 8t-22 6q-1 0 -9.5 1t-8.5 6v2q22 20 42 45.5t31 52.5q1 2 5 12.5l8.5 22.5l8 22l3.5 10q10 -6 16 -16.5t9.5 -23.5t4.5 -25.5t1 -22.5v-3q-1 -6 -2 -15l-2 -18 t-1.5 -15.5t-0.5 -7.5t-2 -6t-4.5 -10.5t-4.5 -10.5t-2 -6q0 -2 -0.5 -6.5t-0.5 -6.5q8 0 14 14t10 32t6 35t2 22q0 23 -8 50t-23 47q-3 4 -9.5 10.5t-8.5 13.5q-5 14 -8 27t-11 25q-9 17 -20.5 35.5t-22 37.5t-17.5 39t-7 41q0 10 4.5 24t12.5 26.5t18 21t22 8.5h4 q25 -14 49.5 -37.5t42.5 -42.5h3q8 0 17 10t14 15q3 2 14 11.5l24 20.5l24.5 20.5t14.5 11.5l10 10t5 13q-11 0 -18.5 -5.5t-18.5 -5.5q-29 0 -55.5 13.5t-51.5 23.5q-38 15 -79 24.5t-82 9.5h-8q-5 0 -15.5 -1.5l-22 -3t-20.5 -3t-12 -1.5q-27 -5 -66.5 -20t-76 -38.5 t-62 -53t-25.5 -62.5zM30 -29q0 14 10.5 25.5t20.5 19.5q10 9 22 13.5t24 7.5t24.5 5.5t24.5 7.5h34q33 0 58.5 -3t48.5 -9.5t46 -17t52 -25.5q1 -1 3 -3.5t3 -3.5v-1v-2q-48 -44 -104.5 -71t-122.5 -27q-20 0 -44.5 3.5t-47 12.5t-37.5 25.5t-15 42.5zM30 485v12 q0 27 16.5 50.5t40.5 42t52 31t51 17.5q3 1 10 2t8 1q5 0 20 0.5t20 0.5v-4q-5 -14 -7 -26t-8 -26q-12 -24 -29 -46t-38.5 -38.5t-47 -26t-52.5 -9.5h-17zM137 122q0 -9 1 -11q0 -10 10 -10q0 36 6.5 69.5t19.5 66.5q3 6 9 13.5l12 15.5t10.5 16t4.5 14q-17 0 -30 -20 t-23 -47t-15 -54t-5 -41v-12zM165 39q0 -9 10 -18.5t23.5 -17.5t27.5 -13t22 -5q6 0 6 8v5q0 2 -3 3q-13 1 -22 2.5t-18 9.5q-2 1 -7 5.5t-10 9.5t-10 9.5t-7 6.5h-4q-8 0 -8 -5zM286 16q0 -3 2 -3t2 3t-2 3t-2 -3z" />
<glyph unicode="U" horiz-adv-x="725" d="M18 517q0 -38 17 -71t50 -53q12 -7 28 -11t30.5 -9.5t24.5 -15.5t10 -29q0 -13 -8.5 -23t-22.5 -10q-9 0 -15 5.5t-11 11.5t-11 11.5t-15 5.5q-14 0 -24 -7.5t-10 -22.5q0 -5 1.5 -10t1.5 -10q0 -6 -6.5 -8.5t-6.5 -8.5t3.5 -6.5t8.5 -0.5q9 0 11.5 5t2.5 13q0 7 -2 13.5 t-2 13.5t5 7h1q1 0 3.5 -1t2.5 -2q2 -1 12.5 -9t12.5 -9q5 -2 13.5 -2.5t14.5 -0.5q23 0 39 17t16 40q0 28 -12 42.5t-30 23.5t-39.5 15.5t-39.5 18t-30 32t-12 56.5q0 28 11 48.5t29 34.5t41.5 21t49.5 7h1q4 -2 16 -5t15 -5q32 -11 53.5 -33.5t35 -52t19.5 -62t6 -62.5 q0 -6 -0.5 -18t-0.5 -14q0 -5 -1 -12.5t-2 -14t-2 -11.5l-1 -5h-5q0 3 0.5 11.5t1 18t0.5 17.5v11q0 4 -1.5 15.5l-3 23.5t-2.5 23t-2 15l-15 28.5t-14.5 25.5t-16.5 23.5t-22 23.5q-3 3 -11 9.5t-13 6.5t-7 -2.5t-5 -7.5q-1 -1 -4.5 -5.5t-7 -9.5l-6.5 -9.5t-4 -5.5 q-6 -8 -19 -21.5l-27 -28l-24.5 -26t-10.5 -14.5q10 0 17.5 5.5t14 12t13.5 12t17 5.5q24 0 41.5 -24.5t28 -56.5t15.5 -64.5t5 -48.5q0 -19 -4 -45t-11.5 -52.5t-19.5 -50t-27 -36.5q-1 0 -4.5 -2.5t-4.5 -3.5q-17 -14 -36.5 -26.5t-37 -27.5t-29 -33.5t-11.5 -45.5 q0 -31 14.5 -41t42.5 -10q27 0 51.5 11t47 28t41.5 37.5t34 40.5v3q0 6 -6 6h-4l-34 -36.5t-38 -37t-43.5 -29t-49.5 -11.5q-17 0 -30 6.5t-13 26.5q0 25 14 45t35 33.5t45.5 20.5t46.5 7q29 0 53.5 -9.5t47 -23t44.5 -30t45 -29.5q34 -20 66 -30.5t71 -10.5q36 0 70 10.5 t63 33.5q16 12 28 26.5t12 35.5q0 8 -5 8t-10 -10.5t-10 -13.5q-18 -14 -39.5 -18t-43.5 -4q-34 0 -62 9.5t-57 27.5q-1 1 -3.5 3t-2.5 3v2q0 4 13 18.5l29.5 31.5l32 31.5t20.5 17.5q3 2 13.5 9.5t13.5 9.5v9q-7 0 -13 -1.5t-13 -1.5q-16 0 -20 8t-6 22v15q0 12 -0.5 24.5 t-0.5 23.5v16v19q0 13 0.5 25.5t0.5 21.5v12q1 10 3 36t4.5 55.5t4.5 55.5t4 37q3 16 10 35t18 35t26.5 26.5t35.5 10.5q23 0 40 -16t17 -39q0 -5 -0.5 -13t-2.5 -12q-4 -5 -12 -13t-10 -8h-30v28q0 6 -8.5 9t-13.5 3q-17 0 -25.5 -12.5t-8.5 -28.5q0 -20 13 -32.5t33 -12.5 q19 0 33.5 7.5t24 20.5t14.5 29.5t5 33.5q0 34 -22 54.5t-55 20.5q-24 0 -40 -7.5t-36 -23.5q-41 -33 -61.5 -75.5t-29 -90.5t-9 -98.5t-1.5 -97.5q0 -7 -1 -34t-2.5 -58t-2.5 -58t-1 -34q0 -4 0.5 -18t0.5 -18q-1 0 -2 -0.5t-2 -0.5q-1 1 -4.5 3.5t-4.5 2.5 q-17 10 -38.5 20.5t-41.5 16.5q-38 11 -74.5 12.5t-75.5 1.5v5q77 71 120 169t43 203q0 42 -11.5 77t-34.5 60.5t-56.5 40t-76.5 14.5q-39 0 -71.5 -14t-56 -38t-36.5 -57t-13 -71zM266 -131q0 -12 4.5 -17t14.5 -14l18 -4.5t19 -4.5q4 -1 12.5 -4.5t8.5 -9.5t-8 -8.5 t-8 -12.5q0 -8 2.5 -10t11.5 -2q0 1 -0.5 3.5t-0.5 3.5t-1.5 3.5l-1.5 2.5q0 4 8 6.5t8 13.5q0 18 -12 22.5t-27 6.5t-27 6.5t-12 22.5q0 15 15 19.5t27 4.5q24 0 46.5 -7t45 -15t46.5 -15t50 -7q46 0 90.5 13t79.5 39t57 64.5t22 89.5v31q-4 17 -10.5 35t-20.5 29 q-31 26 -68.5 48.5t-79.5 22.5h-5q-5 -1 -13.5 -2t-8.5 -2v-9q31 -1 66 -10.5t64 -28t48 -46t19 -64.5q0 -43 -20 -78.5t-51.5 -60.5t-71.5 -38.5t-79 -13.5q-46 0 -88 15q-15 5 -27 11t-23.5 11t-24.5 8.5t-29 3.5h-25q-40 -13 -40 -52zM343 126q9 0 17.5 7t16.5 12 q2 1 12 7.5t12 7.5q3 1 9.5 5t13.5 7.5l13.5 7t9.5 5.5q3 3 3 6v1v2q0 3 -3 3h-1q-6 0 -19 -6.5t-27 -14.5t-26 -16.5l-16 -11.5l-15 -15v-7z" />
<glyph unicode="V" horiz-adv-x="651" d="M17 543q0 -22 6.5 -44t21.5 -39q8 -9 26.5 -20t37 -23.5t32.5 -26t14 -28.5q0 -14 -9.5 -16.5t-20.5 -2.5t-19.5 5t-19.5 5q-13 0 -26 -9.5t-13 -23.5q0 -12 6.5 -20t16 -13t20.5 -9t19 -8h5q0 9 -5.5 12.5t-12.5 6.5t-12.5 6.5t-5.5 12.5q0 13 7.5 17.5t19 5.5t24.5 1.5 t24.5 4.5t19 15.5t7.5 34.5t-11 35.5t-28 20t-36.5 13.5t-36.5 16.5t-28 28.5t-11 51q0 24 11 43t28.5 32t39.5 19.5t44 6.5q36 0 65.5 -15.5t51.5 -41t35.5 -58t18.5 -66.5q4 -20 3 -40.5t-1 -41.5q-2 0 -2.5 -1t-2.5 4q-3 34 -10.5 69.5t-22.5 67t-39 57t-59 39.5h-2h-2 q0 -1 -3.5 -4.5l-5.5 -5.5t-8 -9l-13 -15l-13.5 -15.5t-8.5 -9.5q-3 -4 -13 -11.5t-20 -16t-18 -17t-8 -13.5h10q13 11 20.5 16.5t21.5 5.5q19 0 35.5 -9t30.5 -22q44 -42 62 -90.5t18 -108.5q0 -41 -12 -81.5t-44 -68.5q-11 -10 -28 -12t-30 -10q-14 -8 -29.5 -18.5 t-29 -23.5t-22 -29t-8.5 -35q0 -23 16 -33.5t36 -10.5q42 0 82.5 19.5t73.5 45.5q5 3 13.5 11t8.5 10v9h-6l-9 -9t-10 -9l-10 -7t-15.5 -10.5l-16 -10t-10.5 -6.5q-5 -1 -6.5 -1.5t-2.5 -1.5t-3 -2.5t-6 -3.5q-23 -11 -39 -16.5t-39 -5.5q-16 0 -32 5.5t-16 25.5q0 22 15 38 t36 26t44 14.5t40 4.5q25 0 53 -7.5t53.5 -22t46 -34t31.5 -43.5q1 -3 1.5 -10.5t1.5 -15.5t3 -14.5t6 -6.5q7 0 9 10l126 150q5 10 9 13t12 15q11 15 22 32.5t20 36t14.5 38t5.5 38.5q0 24 -7 44.5t-17 40l-20.5 39t-17.5 40.5v28v21t3 21q5 16 24.5 37t40.5 40t38 33 t17 16q0 6 -8 6h-4q-2 -2 -9.5 -7.5t-9.5 -7.5t-6.5 -4t-5.5 -2h-61q-1 0 -5 1.5t-9 4t-9.5 5t-7.5 4.5q-8 5 -13 9.5t-8 9t-5 11l-5 16.5q0 1 -1 10t-6 9l-0.5 -0.5t-1.5 -0.5l-11 -11.5l-17.5 -18l-18 -17.5l-11.5 -11q-1 -1 -8 -6l-16 -12l-18.5 -14t-15.5 -11 q-3 0 -6 -3h-2q-2 0 -6.5 6.5t-9.5 14.5l-9.5 15.5t-6.5 9.5q-33 38 -72.5 57.5t-90.5 19.5q-35 0 -67 -16t-56.5 -41.5t-39 -59t-14.5 -67.5zM228 -106q0 -20 13.5 -30t29.5 -15l29.5 -9t13.5 -12v-2q-1 -2 -3 -5t-3 -3h-34q-4 0 -5 -9t-1 -11q0 -10 6.5 -16t17.5 -6 q0 8 -7.5 11t-7.5 11q0 2 0.5 5t2.5 3h31l9 11v24q0 2 -8.5 5t-20 7.5t-23 10.5t-18.5 14v3q0 7 5.5 12.5t13 9t16 5t13.5 1.5q25 0 49 -10t47 -18q39 -12 80 -12q31 0 61.5 14t54 37t38 52.5t14.5 61.5q0 11 -5.5 29t-15 35.5t-21.5 30t-25 12.5q0 -8 6.5 -17.5t15.5 -20 l17.5 -21t12.5 -20.5q2 -7 2.5 -18.5t0.5 -19.5q0 -21 -12.5 -45.5t-32 -45.5t-43 -35t-44.5 -14h-70q-18 0 -36 7t-37 16t-39 16t-41 7q-18 0 -32.5 -8t-14.5 -28zM256 158v2q30 28 57.5 70t48 89t32.5 95.5t12 89.5q0 20 -6 38t-6 37q0 4 6.5 11.5t15 14.5t17 12.5 t12.5 5.5q3 0 7.5 -5.5l9.5 -12t9.5 -13t8.5 -9.5q12 -10 28 -14.5t31 -4.5q8 0 14.5 2t13.5 2q1 0 3.5 -0.5t4.5 -0.5l-10 -10.5l-15 -16.5l-14.5 -17t-9.5 -11q-20 -23 -25.5 -52t-5.5 -58q0 -37 13 -67.5l27 -64.5q2 -7 7 -21t5 -16v-73q0 -6 -7.5 -21.5t-17.5 -32 t-21 -29t-17 -12.5q-7 0 -14 8t-9 10q-29 22 -51.5 37t-45 23t-48.5 11.5t-60 3.5zM394 142q0 -7 6 -7h3l39 15t42 7q11 0 21 -1.5t21 -1.5q4 0 6.5 0.5t2.5 5.5t-6 6.5l-10 2.5q-3 0 -15 0.5t-15 0.5q-26 0 -49.5 -5.5t-45.5 -19.5v-3z" />
<glyph unicode="W" horiz-adv-x="737" d="M18 300q0 -17 6.5 -28t25.5 -11h2q9 3 15 8t17 5l1 -1q1 0 4 -3v-1q0 -6 -5 -13t-5 -15t6 -8q8 0 10.5 14t2.5 20q0 19 -17 19q-6 0 -11.5 -1.5t-11.5 -1.5h-3q-8 5 -13.5 11.5t-5.5 15.5q0 14 10 18t21 4q9 0 15.5 -4.5t12.5 -9.5t13 -9.5t17 -4.5q19 0 33 9t14 32 q0 27 -12 44t-30 30t-37.5 25t-34.5 29q-16 17 -21 37t-10 43v3q0 25 9.5 45.5t26 35.5t38 23.5t45.5 8.5q36 0 64.5 -20t48.5 -50t30.5 -65.5t10.5 -66.5v-31q0 -4 -2.5 -18l-4.5 -24.5t-2 -12.5h-5q0 3 0.5 12.5t0.5 19.5t0.5 19.5t0.5 12.5q-1 16 -5.5 35t-11 37 t-15.5 34.5t-20 28.5q-5 5 -12 13t-15.5 15.5t-17.5 13t-18 5.5q-1 0 -2.5 -0.5t-2.5 -0.5q-2 -2 -6 -7.5t-8.5 -11l-9 -11t-6.5 -7.5l-14.5 -14.5l-22.5 -22.5l-22.5 -22l-14.5 -14v-9h9l31 24l3.5 0.5t5.5 0.5q14 0 25 -6.5t21 -15.5q36 -34 58 -74.5t22 -91.5 q0 -18 -2.5 -41t-8.5 -45.5t-16 -43t-25 -33.5q-8 -7 -16.5 -10t-17.5 -8q-39 -20 -68.5 -56t-29.5 -82q0 -43 23.5 -70.5t59 -43.5t76 -22t74.5 -6q24 0 40.5 1.5t42.5 8.5q5 4 16.5 6.5t13.5 2.5q11 4 31 13t39.5 22t34 27.5t14.5 29.5h-5q-46 -52 -112 -75t-134 -23h-3 q-1 0 -6 1.5t-6 1.5q-24 4 -56 10t-60.5 18t-48 33t-19.5 55q0 19 10 35t25.5 26.5t34 16.5t35.5 6q35 0 58 -14t49 -35q4 -4 3.5 -5t-0.5 -8q0 -10 -5 -17t-5 -16q0 -7 8 -7q4 0 8 4t6.5 9.5t4.5 10.5t4 7l9.5 12.5l14 17.5l14 17t8.5 11q2 2 7 7.5t11 11.5l11.5 11t7.5 7 h2q4 0 5.5 -5t1.5 -7q1 -2 3.5 -14t2.5 -14q14 -39 49 -59.5t74 -20.5q12 0 24.5 0.5t24.5 3.5q31 7 57 30.5t44.5 55t29 66t10.5 62.5q0 31 -3.5 59t-10 55t-15 55l-17.5 58l-10 37t-5 38q0 26 5 51.5t22 45.5q8 9 19.5 18t22.5 18.5t18.5 20t7.5 24.5q0 4 -3.5 4.5 t-5.5 0.5h-3q-8 -23 -23 -30t-37 -7q-18 0 -31 4.5t-29 13.5q-7 4 -13.5 13t-11 18l-8 15.5t-4.5 6.5h-3l-86 -89q-2 -3 -12 -11t-15 -8q-4 0 -5 1t-4 5q-5 5 -13 15.5t-9 12.5q-2 2 -5 8l-6.5 13t-6 13t-3.5 9l-3 3h-2h-2q0 -3 -3 -6q2 -47 -1 -92.5t-5 -91.5 q-8 -189 -6 -377q-7 -8 -17.5 -17l-16.5 -14h-3q-8 0 -15.5 9t-11.5 12q-3 3 -13 10t-12 9q-22 14 -44 17.5t-48 3.5v6q30 28 57.5 66.5t49 82t34.5 89t13 86.5q0 42 -11 81.5t-33.5 70t-57 49t-81.5 18.5q-36 0 -66 -16.5t-51.5 -43.5t-34 -60t-12.5 -66q0 -23 7 -50.5 t24 -45.5q9 -10 23.5 -21.5t28.5 -24.5t24 -27.5t10 -29.5q0 -11 -10 -16q-1 -1 -5 -1h-5q-8 0 -14 3.5t-11 7.5t-11 7.5t-14 3.5q-18 0 -32.5 -13t-14.5 -31zM318 226q5 0 8 5.5t5 12.5l4 14.5t5 11.5q8 14 18.5 21l24.5 16v10q-3 0 -3 -1q-2 0 -6.5 -2.5t-5.5 -3.5 q-50 -29 -50 -84zM468.5 257q0.5 27 0.5 43v44q0 3 0.5 14.5t1 25t1 25.5t0.5 15q1 29 0 58t6 58q2 11 12 23t10 23q0 6 -3.5 9.5t-7.5 6.5t-7.5 6.5t-3.5 8.5v3q4 5 12.5 13.5t16.5 8.5v0q1 0 2 -1q20 -14 42.5 -25t47.5 -11h2q3 0 9.5 1.5t14.5 3t15 2.5t10 2l3 -3 q-32 -35 -44 -80.5t-12 -90.5q0 -39 9.5 -75t21.5 -71.5t21.5 -71.5t9.5 -75q0 -20 -6 -42t-18 -40.5t-30 -30.5t-41 -12q-28 0 -45.5 16t-28 41.5t-15 57.5t-6 62.5t-1 57.5zM481 310q46 -20 72 -60t26 -90q0 -25 -3.5 -45t-11.5 -44q-3 -8 -8 -17t-5 -17h10l6 12t9 19 q9 19 12.5 39.5t3.5 41.5q0 48 -16.5 87t-57.5 68l-17.5 10.5t-19.5 5.5v-10z" />
<glyph unicode="X" horiz-adv-x="755" d="M17 79q0 -35 23.5 -58.5t57.5 -23.5q38 0 72 23t63 57.5t53 74.5t41.5 74.5l28.5 57.5t15 23h2q13 -21 19.5 -43.5t17.5 -45.5q2 -5 7.5 -16.5l11.5 -24t12 -23.5t8 -15q1 -1 4.5 -6.5l8 -12.5l8.5 -13.5t7 -10.5q6 -9 18 -23.5t26 -28.5t29 -24.5t27 -10.5 q10 0 12.5 10.5t3.5 17.5q16 35 39.5 67.5l46.5 61.5q10 12 24.5 22t30.5 17.5t33 11.5t32 4v3q0 6 -3 10h-12q-26 0 -48 -11.5t-43.5 -25.5t-44 -25.5t-48.5 -11.5q-30 0 -54 20.5t-42.5 49t-32 59.5l-22.5 52q-6 14 -13.5 30t-7.5 33q0 7 6.5 10.5t14.5 4t16.5 0 t12.5 -0.5q18 0 39 -2.5t37 -13.5q8 -5 14.5 -12.5t16.5 -7.5q0 11 -7 17q-29 30 -70.5 40.5t-82.5 8.5q-3 1 -3 3v5q0 18 5.5 38.5t13.5 40.5t18 38.5l18 34.5q1 2 5.5 8.5t8.5 6.5h1q12 -14 26 -21t32 -7q22 0 44.5 7.5t43 20t38.5 28.5t31 33l15 19t8 22q-3 0 -11 -7.5 t-17 -17t-18 -18t-14 -10.5q-11 -5 -22.5 -7t-24.5 -2q-16 0 -32 8t-16 27q0 6 2.5 10t6 7.5t6 7t2.5 8.5q-10 0 -19 -4.5t-16 -11.5l-77 -77q0 -3 -3 -6q-16 -21 -30 -42l-28 -44q-8 -12 -10 -25.5t-15 -23.5h-1h-2q-15 26 -26.5 57t-25.5 57q-18 33 -44 58t-54 49 q-5 4 -5.5 11.5t-5.5 7.5h-1v-1q-3 -3 -12.5 -15.5l-20 -26.5l-18.5 -25.5l-8 -11.5q-20 -23 -44.5 -44.5t-53.5 -32.5v-8q16 0 28.5 8t24 17.5t24 17.5t28.5 8q26 0 50.5 -22.5t44.5 -53t34.5 -63t20.5 -51.5v-2v-1l-3 -3q-4 -2 -13.5 -4t-11.5 -2q-1 -1 -12 -1h-16h-16 q-10 0 -11 1q-1 0 -9 2t-13 4q-7 2 -14 10.5t-13 8.5q-4 0 -4 -2q0 -1 -2 -5q-8 -22 -19.5 -42t-20.5 -41v-4q0 -6 5 -9t12 -4t14 -1h11q38 0 74.5 13t70.5 30h3q6 0 6 -6q0 -14 -9 -27.5t-15 -25.5q-11 -20 -34.5 -56.5t-53.5 -72t-62.5 -62t-61.5 -26.5q-37 0 -37 35 q0 18 11 32.5t27.5 25.5t35.5 18t34 11q16 5 37.5 4.5t35.5 -1.5q3 2 3 7v3q-8 4 -19 3.5t-19 -0.5q-32 0 -67 -12.5t-65 -34.5t-49.5 -52t-19.5 -65zM188 -90q0 -21 12.5 -31t28 -14t28 -6.5t12.5 -8.5q0 -8 -9 -10t-13 -8v-11q0 -11 7 -21.5t18 -10.5q0 9 -2.5 13 t-5.5 6.5t-5.5 5t-2.5 7.5q0 6 6.5 7t15 2t15 4t6.5 13q0 18 -16 22t-34.5 5.5t-34.5 6t-16 24.5q0 9 4.5 13.5t11 6.5t13.5 2h13q14 0 27.5 -2t25.5 -10q2 0 10 -0.5t10 -0.5q32 0 54.5 11.5t36.5 31.5t20.5 46t6.5 56q0 41 -23.5 81t-56.5 63q-2 2 -7.5 5.5t-9.5 3.5 q-5 0 -5 -6q0 -5 1 -4t6 -2q1 -1 5.5 -4.5l9.5 -7.5t9.5 -8t6.5 -5q25 -21 38.5 -55t13.5 -66q0 -45 -27 -69.5t-70 -24.5q-17 0 -34.5 3.5t-34.5 3.5q-24 0 -44.5 -15.5t-20.5 -41.5z" />
<glyph unicode="Y" horiz-adv-x="638" d="M17 454q0 -7 6 -7t15.5 4.5t19.5 10.5t19 12.5t14 10.5q3 2 11 8l16.5 13l16.5 13t11 8q1 1 5 1h6q25 0 46 -18t37 -43.5t27 -53t17 -45.5v-2q0 -6 -4.5 -8t-9.5 -2q-22 0 -45 7.5t-45.5 19.5t-42 27.5t-34.5 31.5q-7 7 -12.5 16t-16.5 9q0 -20 23 -41t54 -39t63 -29.5 t50 -11.5h9q7 0 8 1l2.5 1.5t3.5 1.5l1 -1.5t2 -1.5q25 -44 50.5 -77t65.5 -65q9 -2 16 -6.5t15 -8.5q17 -8 36 -13t38 -8l3 -3q0 -1 0.5 -5t0.5 -6q0 -9 -2 -20.5t-6 -22.5t-10 -20.5t-14 -14.5q-24 17 -45.5 30.5t-44 22.5t-47.5 13.5t-55 4.5q-33 0 -69.5 -11t-67 -32 t-50.5 -51.5t-20 -69.5q0 -22 12.5 -32.5t34.5 -10.5q19 0 37 6.5t34.5 17t31.5 23t28 24.5q8 7 20.5 19l21.5 20.5t10 9.5v10h-6l-3.5 -2.5l-8 -6t-8.5 -7t-7 -6.5q-17 -15 -33 -31.5t-34 -31t-38.5 -23.5t-44.5 -9q-14 0 -26 7t-12 23q0 29 15.5 51t39.5 36.5t52 22 t52 7.5q19 0 44 -11t46.5 -28t36.5 -38.5t15 -43.5q0 -8 -2 -13t-2 -13h10q10 19 26.5 40t35 42t37.5 40.5t33 36.5q2 6 7.5 11.5t7.5 10.5q19 27 36 61t17 68v217q0 13 2.5 35t10 43t19.5 36t32 15q7 0 12 -3.5t9.5 -7t9.5 -7t12 -3.5v9q-23 20 -40.5 45l-33.5 50 q0 1 -2.5 5.5t-5 9.5l-4.5 9t-3 4h-9q-1 0 -5.5 -4t-10.5 -10l-12 -12.5t-9 -10.5q-25 -32 -40 -79.5t-15 -89.5v-306l-3 -16h-5q-22 0 -40.5 14t-32 34.5t-21.5 43t-9 40.5l-12 221q-2 34 -10.5 66.5t-25.5 58t-44.5 41t-66.5 15.5q-38 0 -72 -15.5t-59.5 -42t-40.5 -61 t-15 -71.5q0 -17 0.5 -24.5t5.5 -21.5v-2q0 -6 -7.5 -10t-17 -7.5t-17 -7.5t-7.5 -10zM72 538q0 16 3.5 29t8.5 28q3 7 7.5 18.5t5.5 12.5l43 43q8 8 22 10t25 2q31 0 51.5 -12t33.5 -31.5t20.5 -44.5t12.5 -50q3 -15 6.5 -29t3.5 -29h-4l-4.5 11.5t-7.5 18.5 q-11 29 -27.5 52t-39.5 43q-2 1 -6.5 6.5t-6.5 6.5h-2q-8 0 -13 -10t-9 -15q-24 -32 -49.5 -54.5t-57.5 -46.5q-3 -3 -7 -3h-1q-3 0 -4.5 6t-2 13.5l-1 14.5t-0.5 10zM158 662h3q3 3 6 3h-9v-3zM259 -136q0 -15 6.5 -25.5t16.5 -17t22.5 -10t25.5 -4.5q5 -2 5.5 -5.5 t0.5 -7.5q0 -7 -3.5 -10.5t-9 -5t-12 -2t-12.5 -0.5q-3 -1 -3.5 -4t-0.5 -5h4q3 0 11.5 0.5t18 1t17.5 1t11 0.5q4 3 4 7v8q0 12 -6.5 19t-16 11t-20 6t-19.5 4q-5 2 -5.5 5t-0.5 7q0 17 16.5 25.5t30.5 8.5q22 0 42.5 -3t42.5 -3q32 0 66.5 7.5t63.5 24t47.5 43.5t18.5 66 q0 21 -6.5 47t-21.5 42q-3 3 -7.5 9t-10.5 11.5t-13 10t-13 4.5q0 -5 7 -13.5l15.5 -18.5l17 -20t11.5 -17q5 -12 5.5 -24.5t0.5 -25.5q0 -32 -12.5 -55.5t-33 -39t-47.5 -23t-56 -7.5q-19 0 -36 3.5t-33.5 7.5t-33 7.5t-34.5 3.5q-23 0 -42 -9t-19 -35zM314 472v3h4v-3h-4z M409 397q19 0 38 20.5t34 48.5t24 57t9 46q0 12 -4 27.5t-11.5 30t-18.5 24t-26 9.5q-20 0 -31 -16.5t-11 -34.5q0 -5 2.5 -9.5t7.5 -4.5q7 0 9.5 6t10.5 6q10 0 18 -7.5t13 -18.5t7.5 -22.5t2.5 -20.5q0 -37 -22 -70.5t-48 -56.5q-4 -4 -4 -14zM415 135q0 -6 6 -6 q13 0 22 2l17.5 4t19 3t25.5 0q3 1 3 6t-3 6q-2 0 -10 0.5t-10 0.5q-19 0 -35.5 -3.5t-33.5 -9.5z" />
<glyph unicode="Z" horiz-adv-x="600" d="M17 -10q2 0 6.5 0.5t6.5 3.5q13 34 33.5 57.5t60.5 23.5q29 0 55 -14.5l51 -29.5q36 -22 74 -40t82 -18q37 0 72.5 12.5t63 35t44 55t16.5 72.5q0 27 -9 53t-26 47t-40.5 34t-51.5 13q-15 0 -31 -2t-29 -10q-24 -21 -41 -45.5t-17 -57.5q0 -17 7 -32t18.5 -26.5 t26.5 -18.5t32 -7q29 0 49.5 19t20.5 48q0 14 -9.5 30t-26.5 16q-15 0 -20 -6.5t-7.5 -15t-6.5 -15t-18 -6.5q-17 0 -28 10t-11 27q0 19 7.5 34t20 25t28.5 15.5t34 5.5q40 0 66.5 -25.5t40.5 -60.5l3 -9v-68q0 -1 -1 -5.5t-2 -6.5q0 -1 -1.5 -3.5l-1.5 -2.5 q-6 -15 -13.5 -29.5t-18 -25.5t-24 -18t-31.5 -7q-38 0 -69 17.5t-60.5 38t-60.5 38t-69 17.5q-16 0 -36 -2.5t-35 -7.5q-18 -6 -30 -14.5t-28 -8.5q0 1 -1 1v1q1 1 2 4.5t1 4.5q39 51 82 94.5t90 86.5q4 3 14.5 14l13.5 14q7 7 5.5 8t7.5 1q17 0 33 -3.5t34 -3.5h16 q13 0 17 1l15.5 4t15.5 5q12 5 24.5 14t22 21t16 25t6.5 27q-12 0 -19.5 -7t-18.5 -10q-1 0 -7 -1t-13 -2l-14.5 -2t-11.5 -1h-6q-38 0 -75.5 9.5t-77.5 9.5q-15 0 -28.5 -4.5t-27.5 -8.5q-2 -2 -7.5 -6t-11 -9t-11 -9.5t-7.5 -5.5q-4 -4 -10 -9.5l-12 -11.5t-10.5 -12 t-4.5 -12q0 -5 6 -5q1 0 2 0.5t2 0.5q19 15 33.5 21t39.5 6q5 0 17.5 -1t25.5 -3t24 -6t13 -10h-9l-5.5 -4.5t-13 -11.5l-15 -14t-12.5 -11l-23 -23l-30.5 -30l-27.5 -27t-14 -15q-2 -2 -11.5 -13.5l-20.5 -25.5l-22 -28l-17 -22q-18 -24 -34 -54t-16 -61zM55 533 q0 -49 31 -76t79 -27q27 0 48 10t38 30q5 6 8.5 14t7.5 15t10 12t15 5q5 0 9.5 -0.5t7.5 -5.5q0 -5 -1 -12.5t0.5 -14t5 -11.5t12.5 -5q5 0 10 4.5t5 9.5q0 1 -0.5 2.5l-0.5 1.5q-1 2 -6 6.5t-6 5.5q-5 7 -8 13t-7 10t-9.5 6t-16.5 2q-25 0 -38.5 -13t-26 -28.5t-28 -28.5 t-44.5 -13q-34 0 -60 23.5t-26 59.5q0 27 11.5 53.5t31 47.5t45 34t53.5 13q9 0 27.5 -4.5t37 -11.5t33 -14t14.5 -13q-21 0 -43 6t-45 6q-18 0 -41.5 -5t-44 -16.5t-34.5 -28.5t-14 -41q0 -9 6.5 -10t11.5 -4q4 -2 16 -7.5t15 -7.5q6 -4 12.5 -11l13 -14t13 -12.5 t13.5 -5.5v12q-2 2 -8 10.5t-7 11.5q-1 0 -1 3v5q0 21 10.5 34.5t26 22t34 12t35.5 3.5q35 0 70.5 -6.5t70.5 -6.5q40 0 76 16q10 5 23.5 14.5t24.5 9.5q0 -1 0.5 -1.5t0.5 -1.5q-3 -3 -3 -6q-3 -4 -11.5 -14l-17.5 -21.5l-17.5 -21.5t-12.5 -14l-24.5 -25.5l-37.5 -39 l-38 -38.5l-25 -25v-6q7 0 13.5 5t10.5 10l22 21l33.5 32.5l33.5 32.5l22 21q29 30 56 68l48 70q2 4 4 8.5t2 8.5q0 5 -3.5 8t-8.5 3q-4 0 -11 -8.5t-18 -18t-25.5 -18t-32.5 -8.5q-20 0 -36 4t-30.5 10.5t-29.5 14.5t-32 15q-28 11 -56 17.5t-59 6.5q-24 0 -51 -5 t-52.5 -16t-46.5 -28t-33 -40q-11 -22 -20.5 -43t-9.5 -47z" />
<glyph unicode="a" horiz-adv-x="365" d="M17 141q0 -83 58 -144v-6q-2 -2 -5.5 -6t-7 -9t-7 -9.5t-4.5 -5.5l-6.5 -9t-3.5 -10q0 -6 7 -6q10 0 11.5 7t6.5 14q13 18 30.5 32t36 27t36 27t32.5 31h3q5 0 6 -3q8 -26 16.5 -43.5t29.5 -36.5v-1q0 -5 -4 -10t-8.5 -10t-8.5 -10.5t-4 -11.5t5 -6q7 0 11 10t9 15 q14 12 27.5 22l27.5 21l14.5 11.5l15.5 12.5t7 6v6l-6 2.5t-9 3.5l-20 9t-20.5 12.5t-15.5 16.5t-6 21v168q0 12 6 18t13.5 10t14 8t6.5 13v6q-24 2 -47.5 13t-41.5 27l-11 11t-7 8v3q12 11 20 20.5t8 25.5h-7q-35 -39 -70.5 -70.5l-73.5 -67.5q-4 -8 -10 -14t-11 -14 q-17 -32 -30 -65.5t-13 -69.5zM90 181q0 20 3 41.5t9.5 41.5t17 38t26.5 32h1q6 0 15.5 -4t18.5 -10t16 -14t7 -15v-183q0 -5 -5 -13t-12.5 -15.5t-15.5 -13t-14 -5.5q-21 0 -34 13.5t-20.5 32t-10 39t-2.5 35.5z" />
<glyph unicode="b" horiz-adv-x="377" d="M17 26q0 -5 6 -5q9 0 17 3.5t17 3.5q18 0 35.5 -15.5t28.5 -27.5q0 -1 0.5 -3t0.5 -3q0 -10 -6 -17.5t-6 -17.5h8q4 0 6 4q12 18 27.5 30.5t33 22l35.5 18.5t36 21q47 32 75.5 76t28.5 103q0 21 -6 45.5t-19 41.5q-5 7 -16 18l-21.5 22.5t-18.5 22.5t-8 19t4.5 14.5 t4.5 14.5q0 6 -4 6h-2q-6 -4 -9.5 -12t-5.5 -13l-52 -52q-17 -11 -32 -23.5t-29 -25.5l-3 3q0 1 -0.5 6.5t-0.5 12.5v15v12q0 48 1 87.5t3 90.5q4 21 11 41.5t18 36t28 25.5t42 10h20q6 -1 12 -9q0 -3 -3 -3q-1 -1 -7.5 -3t-7.5 -3q-9 -7 -14 -18t-5 -22q0 -20 10 -36 t33 -16q30 0 46 17t16 47q0 18 -8.5 30.5t-22 21t-29.5 12.5t-31 4q-27 0 -53 -11t-48 -29.5t-39 -41.5t-27 -47q-2 -4 -4.5 -11t-4.5 -14t-4 -12t-2 -6v-383q0 -16 -8.5 -29t-19 -23t-19 -16.5t-8.5 -9.5zM136 131q0 33 2 67.5t5 68.5q0 7 5 12t10 9q4 4 11.5 9.5t14 11 t12 9.5l5.5 4h6l6.5 -6.5l15.5 -15t18 -18l15 -15.5q19 -20 23.5 -44.5t4.5 -50.5q0 -20 -4.5 -42.5t-15 -41.5t-27.5 -32t-42 -13q-18 0 -30.5 8t-20 20.5t-11 28t-3.5 31.5z" />
<glyph unicode="c" horiz-adv-x="270" d="M17 155q0 -51 14.5 -91t52.5 -73q5 -3 16.5 -8t11.5 -11q0 -9 -6.5 -15.5t-6.5 -15.5q0 -8 5 -8q1 0 6 5.5l10.5 12t10 12.5t6.5 7q9 7 24 17t29.5 21.5t25 24t10.5 26.5q0 6 -7 6h-3q-7 -9 -15 -15.5t-20 -6.5h-2q-4 2 -12 4t-9 2q-21 9 -35.5 23.5t-24 33t-13.5 39.5 t-4 42q0 19 0.5 30t2.5 32q1 4 3 13.5t5 18.5t7.5 16t10.5 7q7 0 13.5 -4t12.5 -8.5t12 -8.5t14 -4t13.5 0.5t13.5 2.5t19 12t21.5 22.5t17.5 25.5t7 22q-13 0 -22.5 -6t-23.5 -6q-5 0 -12.5 2t-14.5 5t-12 7.5t-5 10.5q0 5 4 10.5l8.5 11.5t8.5 12.5t4 13.5v1q-3 3 -7 3 l-1 1q-5 0 -8.5 -8.5t-5.5 -10.5q-1 -2 -7 -9t-8 -9l-47 -51.5t-43.5 -56t-32 -62t-12.5 -68.5z" />
<glyph unicode="d" horiz-adv-x="323" d="M17 150q0 -37 10 -71t33 -63q10 -13 22.5 -22.5t23.5 -20.5v-3q0 -8 -2 -13.5t-2 -15.5q8 0 13 5t9.5 12t8.5 14.5t10 12.5q3 3 11 10t10 8q11 8 23.5 15t22.5 16q23 22 41 43.5t30 44.5t18.5 49.5t6.5 58.5q0 4 -0.5 18t-0.5 19q-8 35 -24 66t-37 58.5t-45.5 52.5 l-49.5 49q-10 13 -16 28t-6 31q0 9 3.5 17.5t7.5 16l7.5 14t3.5 11.5q0 8 -8 8h-5q-8 -7 -18 -17.5t-18 -22.5t-13.5 -25t-5.5 -25q0 -26 4.5 -46t13.5 -37.5t21.5 -34t28.5 -34.5v-5q0 -5 -10.5 -15t-24.5 -21l-28 -22.5t-20 -19.5q-49 -61 -49 -144zM87 177 q0 52 14.5 97.5t56.5 77.5q0 1 1 1h2q3 0 7 -4t7.5 -8.5t6 -9.5t3.5 -6q13 -23 22 -41.5t13.5 -36.5t6.5 -38t2 -46q0 -12 -2 -32.5t-8 -40t-17 -33.5t-29 -14q-22 0 -37.5 14.5l-29.5 28.5l-13 44.5t-6 46.5z" />
<glyph unicode="e" horiz-adv-x="258" d="M17 139q0 -33 10.5 -65t36.5 -55q9 -8 20.5 -16t19.5 -18q-9 -8 -18.5 -19.5t-9.5 -24.5q0 -4 0.5 -7.5t5.5 -3.5h3q1 11 6 18t12.5 12t15 9.5t12.5 12.5l55 34q4 5 12.5 10.5t16.5 11.5t14 12.5t6 15.5q0 8 -6 8t-10.5 -3.5t-8.5 -8t-8.5 -8t-11.5 -3.5q-2 0 -7 0.5 t-6 0.5q-48 12 -68.5 47t-20.5 81q0 16 0.5 34.5t4 36t11 33.5t21.5 28h4q10 0 19 -6t15.5 -14.5t10 -18.5t3.5 -19q0 -21 -11.5 -36t-26 -28.5t-26 -28.5t-11.5 -34q8 0 11.5 1.5t5.5 9.5q16 15 37 31.5t40 35.5t32 40t13 47q0 22 -10 37.5t-22 25.5t-22 16t-10 11v3 q1 2 4.5 9.5t4.5 8.5v2v1q0 2 -1.5 4t-1.5 3h-2q-3 0 -7 -4.5t-7.5 -10.5l-7 -11.5t-4.5 -7.5l-50.5 -52.5t-44 -55t-31.5 -61t-12 -71.5z" />
<glyph unicode="f" horiz-adv-x="370" d="M17 339q5 0 20 -0.5t20 -1.5q2 0 6 -1.5t6 -4.5q2 -14 2.5 -20.5t0.5 -18.5q0 -105 -1.5 -208t-1.5 -208v-93l3 -43l1 -1.5t2 -1.5h2h1q1 1 3.5 3t2.5 3q5 55 7 110t0 111q7 10 11 16.5t8.5 12t10 10.5t15.5 13q4 3 9.5 4l11 2t9.5 3.5t4 8.5q0 11 -12 26t-15 29 q-1 27 -2 50.5t-1.5 46t-0.5 44.5v49v13v16q0 8 0.5 14l0.5 6l6 6h14q9 0 16.5 1t13 5t5.5 13v9q-11 3 -23.5 3.5t-22.5 -0.5l-6 6v132q0 17 5.5 36.5t15.5 33.5q3 4 8 9.5t11 11t12.5 9.5t12.5 4q10 0 20.5 -7t18.5 -11q9 -5 19 -8.5t19 -8.5t14.5 -12t5.5 -20v-13 q-4 -5 -16 -10.5t-12 -12.5q0 -5 8 -5q13 0 25.5 7t22.5 17.5t15.5 24t5.5 25.5q0 29 -16 44.5t-34.5 25.5l-34.5 18t-16 23q0 12 6 17.5t13.5 9l14 6.5t6.5 9q0 7 -6 7q-11 0 -25 -5t-27 -14t-22 -20t-9 -23v-46l-3 -3q-37 -18 -65 -39.5t-45 -61.5q-6 -12 -8.5 -24.5 t-7.5 -24.5l-6 -106h-52v-27z" />
<glyph unicode="g" horiz-adv-x="371" d="M17 148q0 -34 10.5 -68.5t32.5 -60.5q2 -3 9.5 -9.5l15.5 -13t14.5 -12.5t6.5 -7q0 -7 -4 -12t-4 -13q14 0 24 11.5t21 18.5l70 70l1 1q4 0 7.5 -5.5t6.5 -13t6.5 -15t6.5 -10.5l46 -46q13 -13 14 -33.5t1 -37.5q0 -30 -14.5 -53.5t-37 -39.5t-50.5 -24t-55 -8 q-8 0 -19.5 1t-22.5 4t-19 9t-8 17q8 0 14.5 -1.5t14.5 -1.5q19 0 30 11t11 31q0 27 -17.5 38.5t-42.5 11.5q-38 0 -51 -37v-20q0 -5 1.5 -14.5t4.5 -19.5t7 -18.5t9 -10.5q23 -5 45.5 -13t46.5 -8q41 0 78.5 15.5t65.5 42.5t44.5 63t16.5 78q0 23 -7 45.5t-21 40.5 q-15 19 -27 31.5t-16 35.5q0 4 -0.5 14t-1 21.5t-1 21.5t-0.5 14v9v9q0 6 0.5 18l1 24.5t1 22.5t0.5 12q2 21 12 29.5t28 16.5q0 1 0.5 3t0.5 3q0 6 -6 10.5t-14.5 7.5t-17 5t-12.5 4q-20 9 -36 25q-4 3 -10 9l-6 6v6l25 25q3 3 3 9t-5 6h-1q-16 -17 -34.5 -30.5 l-36.5 -27.5l-59 -46t-49.5 -47.5t-34.5 -56.5t-13 -73zM93 176q0 20 4 41.5t12 41.5t20 38t29 31h3q5 0 12 -4.5t14 -10.5l13.5 -12t9.5 -10q0 -12 0.5 -41t1 -61.5t1 -61.5t0.5 -41v-2q0 -14 -14.5 -26t-26.5 -12q-8 0 -17.5 4.5t-14.5 7.5q-31 22 -39 51.5t-8 66.5z" />
<glyph unicode="h" horiz-adv-x="408" d="M17 24q13 0 24.5 4t23.5 4q17 0 24 -10t18 -24v-10q0 -10 -4.5 -17.5t-4.5 -17.5q0 -5 6 -5h1t2 1q11 20 25 37.5t33 32.5q4 3 10.5 4.5t12.5 3.5t10 5t4 9q0 4 -5.5 9t-13 10t-15.5 11t-12 12q0 8 -0.5 29t-1 45t-1 45t-0.5 29v12q0 18 12 29.5t25 22.5q3 3 8 7l9.5 7.5 l8.5 6.5l4 3h3l27 -23t32 -11q11 0 18.5 3.5t17.5 6.5l53 52q6 4 13 9.5t7 13.5q-10 0 -17 -4t-14 -9t-14 -9t-17 -4q-13 0 -29 10.5t-16 24.5q0 7 3.5 12t3.5 13v7q-1 1 -3 2t-3 2h-2q-6 0 -7.5 -6.5t-3.5 -9.5t-11 -14.5t-13 -15.5q-19 -22 -42.5 -41l-46.5 -36h-2h-1 q-3 0 -3 3v242q0 32 10 57t36 44q2 2 6.5 4t5.5 2h55q10 0 19.5 -7t14.5 -14q-4 -8 -11 -10.5t-13.5 -6t-11 -10.5t-4.5 -23q0 -5 1.5 -13t5 -15t9 -12t12.5 -5h33q7 0 12.5 6t9 14t5 16.5t1.5 13.5q0 30 -10.5 45.5t-35.5 33.5l-11.5 5.5t-12.5 3.5h-65q-10 -7 -21 -9 t-22 -10q-39 -27 -62 -61t-24 -83q0 -7 -0.5 -34.5t-1 -60t-1 -60.5t-0.5 -35v-1v-2q0 -8 0.5 -39t1 -66.5t1 -66.5t0.5 -39v-4q0 -20 -10.5 -28.5t-23.5 -14t-23.5 -11t-10.5 -17.5zM140 -211q0 -6 8 -6q7 0 16.5 7t18.5 16l17.5 18l13.5 14q2 2 9.5 6.5t9.5 5.5 q20 20 41.5 48t39.5 59t29.5 63.5t11.5 62.5q0 21 -6 40t-12.5 37.5l-12.5 36.5t-6 38q0 19 12 34t25 26v11q-11 0 -22 -11l-18 -18q-23 -26 -37.5 -55t-14.5 -64q0 -26 7 -50l15 -49q5 -8 5.5 -18.5t0.5 -20.5q0 -30 -14.5 -61.5t-36 -61.5t-47 -56t-46.5 -43 q-4 -3 -5.5 -4t-1.5 -5z" />
<glyph unicode="i" horiz-adv-x="246" d="M17.5 308.5q0.5 -2.5 0.5 -10.5q10 0 17 5.5t16 5.5q10 0 17 -5t10.5 -13t5.5 -17t2 -17v-13t0.5 -19.5t0.5 -19.5v-12q0 -33 -2 -65.5t-2 -64.5q0 -47 37 -81v-3q-2 -3 -10.5 -13t-8.5 -18q0 -6 5 -6h2q29 28 62.5 50.5t59.5 53.5v3q0 6 -5 6h-1q-2 -1 -5 -3t-4 -3 q-2 0 -8.5 -0.5t-8.5 -0.5q-21 0 -32 10t-16 31v32v32q0 8 0.5 28t1.5 42.5t1.5 42.5t0.5 28q1 5 5.5 7.5t9.5 4.5t8.5 4.5t3.5 8.5t-9 10.5t-20.5 9.5t-20.5 11t-9 15q0 5 3.5 9.5t8 9t8 9t3.5 10.5q0 3 -0.5 6.5t-4.5 3.5q-7 0 -8.5 -4t-5.5 -8q-2 -2 -6 -6.5t-8.5 -9 t-8.5 -8t-5 -4.5q-2 -1 -8 -5.5l-13 -9.5l-13.5 -10t-7.5 -6q-1 0 -5 -3.5l-9.5 -8t-11 -8.5t-8.5 -7q-5 -4 -4.5 -6.5zM77 573q0 -23 14 -33.5t37 -10.5h4q18 12 21.5 23t3.5 29v15q-7 10 -15.5 17.5t-21.5 7.5q-22 0 -32.5 -13.5t-10.5 -34.5z" />
<glyph unicode="j" horiz-adv-x="269" d="M16 -165q0 -38 25.5 -56t60.5 -18q43 0 72.5 26.5t52.5 62.5q1 1 2 4.5t1 4.5q11 28 16.5 47t5.5 48q0 23 -4.5 45t-20.5 41q-6 7 -14 13.5l-16 13.5t-13.5 15t-5.5 19v181q0 10 6 16t13 10t13 8t6 11q0 3 -5 5.5t-12 4.5t-14.5 5t-12.5 7l-7 7t-7.5 8t-6.5 7l-3 3v6 q2 3 10.5 13.5t10.5 14.5q3 3 3 9t-6 6q-3 0 -3.5 -0.5l-2.5 -2.5t-10.5 -12.5t-10.5 -12.5l-14 -14t-11 -10q-2 -2 -10 -7.5l-17.5 -12.5l-17.5 -13t-10 -7q-11 -8 -20.5 -21.5t-9.5 -27.5q11 0 19.5 13.5t16.5 20.5h9q14 0 23 -9.5t14 -21.5v-169q0 -4 0.5 -11.5l1 -15 t1 -14t0.5 -8.5q3 -17 11 -30t19 -25l22 -23t21 -24t16 -29.5t6 -37.5q0 -23 -9 -44t-24 -37t-35.5 -25.5t-42.5 -9.5q-14 0 -28.5 4t-22.5 18l3 3q7 -5 11.5 -7t12.5 -2q19 0 31 12.5t12 31.5q0 20 -16.5 32.5t-34.5 12.5q-22 0 -36 -15t-14 -37zM114 588q0 -17 10.5 -31.5 t29.5 -14.5q22 0 34 13.5t12 34.5q0 17 -10.5 30.5t-29.5 13.5q-20 0 -33 -13t-13 -33z" />
<glyph unicode="k" d="M17 34q0 -3 9.5 -7t21.5 -10t21.5 -14t9.5 -19q0 -8 -4 -14.5t-4 -15.5q4 0 14.5 9.5l23 21.5l24.5 23.5t19 16.5q4 3 9.5 6.5t5.5 8.5q0 3 -5.5 8.5t-13 11.5l-14.5 12t-10 11v65v61t3 61q1 5 9.5 15.5t19 21.5t21.5 19.5t18 8.5q8 0 15.5 -8.5t14.5 -13.5q2 -1 9.5 -6 t9.5 -6q2 -2 9 -9.5t9 -9.5q3 -3 3 -9v-9q0 -19 -11 -34.5t-27 -28t-34 -23l-32 -18.5q-3 -4 -3 -9v-3q8 -3 14 -4l11.5 -2t11.5 -2.5t15 -7.5q15 -10 22.5 -29.5t13.5 -42t15 -45.5t29 -39v-3q-7 -6 -19 -19t-12 -24q0 -6 5 -6q2 0 5.5 4t6.5 8.5l6 9t5 6.5q12 9 31.5 21.5 t39 27.5t33.5 31.5t14 34.5q-6 0 -10 -4t-7 -9.5t-7 -9.5t-10 -4q-15 0 -22 3t-11 8t-6.5 11.5t-8.5 14.5q-1 2 -7.5 8t-7.5 7q-1 2 -1.5 12.5t-1.5 12.5q-7 26 -21.5 46t-39.5 31v3l5.5 6t9.5 9q12 10 25.5 19t25 19.5t19 23.5t7.5 31q0 17 -5 27t-13 16t-18.5 10.5 t-22.5 12.5q-4 3 -11 10t-7 9v6l31 36v11q-6 0 -11 -4.5t-9.5 -10.5l-9 -11.5t-7.5 -8.5t-9 -8l-12 -10l-10.5 -8.5t-5.5 -4.5q-4 -3 -17.5 -14.5t-29 -23.5l-27.5 -22t-13 -10h-2l-3 3v29v29q0 3 0.5 14.5l1 24l1 24t0.5 14.5q1 27 1 62q0 36 8 67.5t28 53.5t60 22h20 q7 -3 14.5 -7t12.5 -11q-3 -6 -10.5 -8t-15.5 -5t-14 -11t-6 -27q0 -21 11.5 -34.5t32.5 -13.5q24 0 37.5 15.5t13.5 40.5q0 20 -10 35.5t-25 26t-33.5 16t-36.5 5.5q-22 0 -47 -7.5t-46.5 -22t-37 -34.5t-18.5 -44l-9 -73v-20q0 -19 -0.5 -50t-0.5 -70t-0.5 -78.5l-1 -76.5 t-0.5 -64v-33q0 -16 -6 -31q-2 -5 -7.5 -9.5t-10.5 -9t-9 -8.5t-4 -7z" />
<glyph unicode="l" horiz-adv-x="389" d="M17 -24v-2v-1q0 -3 3 -3l0.5 -0.5t1.5 -0.5q3 0 10 8.5t18 19t26.5 19.5t34.5 9q22 0 36 -15.5t14 -37.5q0 -10 -6.5 -14.5t-6.5 -19.5q9 0 14.5 8.5t10.5 13.5q3 4 10 10.5t13.5 13.5l12 12.5t7.5 6.5q3 3 10.5 9l16.5 13l17 13t11 8v10q-9 0 -17 -5t-17 -5 q-6 0 -14 4.5t-18.5 9.5t-21.5 9.5t-23 4.5q-21 0 -43 -8.5t-41.5 -22.5t-35.5 -31.5t-23 -35.5zM67 69q19 0 37.5 12.5t33.5 31t25.5 39.5t15.5 38q0 4 0.5 16l1 25l1 25t0.5 17q0 14 0.5 50t0.5 76q0 41 -0.5 77t-0.5 50q0 21 4.5 42.5t14.5 39.5t26.5 30t40.5 14 q2 0 15 -1t19 -2t15 -6t9 -12v-4q-13 3 -21.5 -1t-14 -11.5t-8 -17.5t-2.5 -20v-17q7 -13 17.5 -20.5t24.5 -7.5q22 0 36 14.5t14 37.5q0 40 -28 61.5t-65 21.5q-39 0 -69.5 -16t-52 -42t-34 -59.5t-14.5 -68.5v-43q0 -7 -0.5 -35.5t-1 -61t-1 -61t-0.5 -35.5 q-1 -33 -0.5 -68t-12.5 -67q-4 -10 -15 -20.5t-11 -20.5z" />
<glyph unicode="m" horiz-adv-x="613" d="M17 267h6q6 10 14.5 22t22.5 12q12 0 19.5 -5.5t12 -14.5t6.5 -19t2 -19q0 -40 0.5 -82.5t-6.5 -83.5q-2 -11 -11 -18.5t-19 -14t-18 -12.5t-8 -14q10 0 17 3.5t16 3.5q6 0 13 -5t13.5 -12.5t10.5 -15.5t4 -13q0 -7 -2 -11.5t-2 -12.5q8 0 16.5 7.5t16.5 17.5l15.5 20 t13.5 16q3 3 8.5 4.5t10.5 3t8.5 4t3.5 7.5v5q-15 14 -27.5 27.5t-12.5 34.5q0 37 2 75l4 74q5 7 11.5 17.5t14.5 19.5t17.5 15.5t19.5 6.5q11 0 18.5 -6t12 -15t6 -19.5t1.5 -18.5v-53v-61q0 -25 -3 -60q-2 -8 -10.5 -15.5t-18 -14.5t-17 -11.5t-7.5 -6.5q8 0 20.5 -3.5 t24.5 -10t21 -15.5t9 -20q0 -9 -7 -16t-7 -18q15 0 22 14l13 25q4 6 15.5 14t24 15t22 13t9.5 8q0 4 -1 5q-23 12 -36 27.5t-13 42.5v4q0 9 1 31.5t2.5 48t2.5 48t1 31.5q4 14 17 30t29 16q5 0 11 -5t14.5 -10.5t19.5 -10.5t25 -5t26 6t22.5 14.5t21 18t22.5 16.5v10 q-12 0 -23 -5t-23 -5q-7 0 -15.5 2t-16 6t-13 10t-5.5 14q0 11 7.5 16.5t7.5 16.5h-11q-20 -23 -46 -43t-49 -40l-7.5 -7.5t-9.5 -4.5q-3 0 -7 4.5t-8 10.5t-7 11.5t-4 6.5q-2 3 -10.5 11.5l-10.5 10.5v3l24 37v18q-5 0 -9 -5t-8 -11.5t-7 -13.5t-6 -10q-27 -29 -58.5 -50.5 t-58.5 -50.5h-3q-2 11 -4 28t-11 27q-3 4 -13.5 14.5t-14.5 13.5v6l19 27v5q0 2 -0.5 6.5t-4.5 4.5h-2l-1 -1.5t-2 -1.5q-10 -17 -21.5 -30.5t-24.5 -25.5l-26 -24t-26 -27q-4 -5 -11 -15.5t-7 -12.5v-12zM436 128q0 -45 7.5 -84t42.5 -71v-5q0 -5 -3.5 -9t-3.5 -9 q0 -8 5 -8h2l12 12q2 2 11 9.5l19.5 16.5l19.5 16.5t11 9.5q4 4 10.5 10l12.5 12t10 10.5l4 4.5v10q-9 0 -15.5 -8t-15.5 -8q-24 0 -37 16t-19 38.5t-7 46.5t-1 40v46q1 2 2.5 8t3.5 13t3.5 13t2.5 9q2 6 7 11t10.5 10t9.5 10t4 10v2l-1.5 1t-1.5 2h-2h-1 q-11 -5 -21.5 -12.5t-18.5 -15.5q-35 -32 -48.5 -71.5t-13.5 -85.5z" />
<glyph unicode="n" horiz-adv-x="442" d="M17 286q0 -3 3 -3h2h1q3 3 10.5 9.5t14.5 8.5h1q14 0 22.5 -8t13.5 -19t7 -24t2 -22v-80v-80q-2 -13 -11 -22t-19 -15.5t-18 -11t-8 -7.5q9 0 23 -2.5t26.5 -8t21.5 -15t9 -22.5q0 -11 -7 -18.5t-7 -19.5q6 0 11.5 5.5t10.5 12.5l10 14.5t10 11.5q3 3 12.5 11t11.5 10 q4 3 11.5 6t14.5 5.5t12.5 5t5.5 5.5q0 5 -8.5 9.5t-18 12.5t-18 20.5t-8.5 33.5v4q0 9 0.5 32t1 49t1 49t0.5 32q3 8 8.5 18.5t13 19.5t16 15t17.5 6h4q13 -15 25.5 -24.5t32.5 -9.5q11 0 21 3.5t19 8.5q3 2 13 10.5l21.5 18t20.5 18.5t9 11q0 7 -5 7h-1v-1q-2 -1 -9 -5.5 t-9 -6.5h-37q-2 0 -6.5 2t-6.5 4l-11 11t-7 8v9q5 8 11.5 20.5t6.5 23.5q-6 0 -13 -6.5t-14 -15.5t-13 -18t-12 -13q-3 -3 -12 -10l-19.5 -15l-19.5 -14.5l-13 -9.5q-3 -3 -6 -3l-19 -19h-3q-3 0 -5 4t-3.5 9l-3 10.5t-3.5 7.5q-3 4 -12.5 15.5t-12.5 15.5v1q0 12 8 22.5 t8 23.5q0 8 -6 8h-3q-4 -21 -17 -36.5t-30.5 -29.5t-35.5 -26.5t-31 -27.5l-1.5 -2.5t-1.5 -3.5v-2v-1zM259 130q1 -6 2 -16l2 -20.5t1.5 -18.5t0.5 -10q5 -32 18.5 -54t37.5 -44v-2q0 -10 -6.5 -20t-6.5 -22q6 0 10 4.5t7.5 10.5l7 12.5t6.5 10.5q6 7 20 21.5l29 31t26 31 t11 20.5q0 7 -6 7q-7 0 -8 -8t-8 -8h-36q-2 0 -6.5 2t-6.5 4q-28 23 -32.5 53.5t-4.5 65.5q0 39 13.5 70.5t45.5 55.5v5q0 2 -0.5 5t-4.5 3q-6 0 -15.5 -7.5t-13.5 -11.5q-36 -34 -59.5 -75t-23.5 -92v-4z" />
<glyph unicode="o" horiz-adv-x="310" d="M17 133q0 -30 8.5 -54.5t25.5 -49.5q3 -5 13 -13.5t20.5 -16.5l19 -14t8.5 -7v-1q-5 -7 -12 -14.5t-7 -16.5q0 -6 7 -6q3 0 6 3q23 31 51.5 56.5t55.5 53.5q1 2 3 5t3 5q1 1 5.5 6t10 10.5t10 10.5t5.5 6q23 31 33 62t10 69v17q0 3 -2 12l-4 18.5t-3.5 18.5t-2.5 12 q-11 16 -19 32t-24 29q-8 7 -19 13t-18 15q5 6 15 20t10 24q0 2 -1 2l-1 1.5t-2 1.5h-1q-5 0 -9.5 -9.5t-7.5 -12.5l-12.5 -12.5t-12.5 -11.5l-62.5 -57t-51.5 -57.5t-35 -66.5t-13 -83zM90 168v17v20t1 14q0 1 0.5 6t1.5 11.5l2 13t2 9.5q1 6 4.5 18t8.5 23.5t11.5 20.5 t14.5 9q18 0 33.5 -11.5t27.5 -29t20.5 -36.5t11.5 -34v-34q0 -14 -1.5 -36t-7 -42.5t-16.5 -35.5t-31 -15q-18 0 -32 9.5t-24 23.5t-16.5 31t-9.5 32q-1 4 -1 16z" />
<glyph unicode="p" horiz-adv-x="419" d="M17 296q0 -6 6 -6h3q5 13 12.5 25t22.5 12q16 0 26 -14t16 -26v-69v-69q0 -7 -0.5 -23.5t-1 -35t-1 -35t-0.5 -22.5q-8 -9 -20.5 -16.5t-24.5 -15.5t-21 -17.5t-9 -21.5h7q14 13 31 25.5l31 23.5h1h2l3 -3v-90v-79q0 -39 -3 -79q-1 -1 -2 -4.5t-1 -4.5l-8 -15.5l-8 -15.5 v-1q0 -5 6 -5q4 0 7 3q3 6 19.5 20.5l34.5 30.5l32.5 28t14.5 13q0 4 -2.5 5.5t-6 2.5t-7.5 2.5t-6 4.5q-8 10 -7 26t1 27q0 35 0.5 65.5t2.5 68.5q1 4 6 3.5t6 -0.5q14 0 24 -11.5t10 -25.5q0 -8 -3.5 -13.5t-3.5 -13.5h4q18 20 47.5 42t57 46.5t47.5 52t20 58.5 q0 16 -8.5 29t-18 25t-18 24.5t-8.5 28.5q0 14 7.5 22.5t16 14l16 10t7.5 10.5q-2 0 -8 0.5t-8 0.5q-1 0 -2 1.5l-1 1.5q20 23 46 37v13q-10 0 -20.5 -6.5t-26.5 -6.5q-6 0 -14 1.5t-15 4.5t-12 8.5t-5 13.5q0 11 8 18t8 20q-4 0 -6 -2q-11 -8 -22.5 -22.5t-20.5 -22.5 q-24 -23 -51 -43t-50 -46h-7q0 13 1.5 30.5t-6.5 30.5q-3 4 -9 10l-12 11.5l-11 10t-5 6.5v2l19.5 19.5t9.5 23.5h-7q-23 -24 -46.5 -41.5t-48.5 -38.5q-9 -8 -23 -22.5t-14 -29.5zM167 60v166q0 16 8 30t20 26t25 22.5l24 19.5h1q5 0 11 -9.5t9 -12.5q3 -2 7.5 -6.5 l4.5 -4.5h35q0 -4 -4 -10q-15 -23 -24.5 -40t-9.5 -46q0 -11 5.5 -20.5t12.5 -18.5t14.5 -17.5t10.5 -17.5q2 -5 2.5 -15t0.5 -17q0 -17 -9.5 -28.5t-20.5 -21.5q-1 0 -2.5 -0.5t-2.5 -0.5q-9 0 -18 7.5t-17 11.5q-9 4 -19 5t-20 1q-9 0 -17.5 -3t-17.5 -3h-5t-4 3z" />
<glyph unicode="q" horiz-adv-x="342" d="M16 129q0 -29 6.5 -60t24.5 -55q2 -3 8 -8l13 -11l13 -11.5t8 -9.5l0.5 -0.5t0.5 -1.5l-1 -1l-24 -31q-1 -1 -2 -5.5t-1 -6.5q0 -3 3 -6h1q5 0 8.5 6.5t5.5 8.5q14 16 27.5 28t30.5 24v12q3 0 6 -3h2h2q17 11 32 26l29 29h4q0 -66 1 -132t1 -133v-4q-1 -6 -2 -18l-1 -12 q-5 -11 -15 -17.5t-10 -19.5h6q1 0 12.5 10.5t18.5 17.5q20 19 40 34.5t46 26.5q3 2 3 5v5v5q-4 5 -8 5q-3 0 -6 0.5t-7 5.5t-10 20v102q0 80 4 159.5t2 160.5q2 16 13.5 25l23.5 18v11q-32 0 -56.5 19.5l-47.5 39.5q-1 1 -3.5 3t-2.5 3v2v1q1 1 5 5.5l8.5 9.5t8 9.5 t5.5 6.5q1 0 2 2.5t1 3.5l1 1q0 1 -0.5 1.5l-0.5 0.5l-1 1.5t-2 1.5h-1q-5 0 -11 -5t-13 -11.5t-13.5 -13.5t-10.5 -10q-36 -27 -68.5 -55t-56.5 -59.5t-38 -69.5t-14 -86zM89 168q0 22 2 45t8 45t17 42t28 35h4q8 0 17 -4.5t18 -11.5t16.5 -14t12.5 -13q4 -5 5 -15t1 -12 v-69v-69q0 -11 -3 -25.5t-9.5 -27.5t-16.5 -21.5t-25 -8.5q-23 0 -38 13t-23 32t-11 40.5t-3 38.5z" />
<glyph unicode="r" horiz-adv-x="364" d="M17 286q0 -8 6 -8q5 0 6.5 4t2.5 8l28 28h4q12 0 25.5 -14t13.5 -26v-184q0 -24 -15 -35.5t-34 -22.5v-13q8 0 14.5 3.5t14.5 3.5h1l13 -8t15.5 -11t12.5 -13.5t5 -15.5v-1q-18 -20 -18 -44q11 0 12.5 6t8.5 13l49 49q6 2 17.5 9t23 16.5t20.5 19.5t9 17h-8 q-8 -8 -15 -13.5t-18 -5.5q-5 0 -12 4t-13.5 9.5t-11 12t-4.5 11.5v41v42v27t1.5 35t4.5 34t10 23q1 2 5 6l8.5 8.5l8 8l5.5 5.5h2q4 0 9.5 -4t11 -8.5t12 -8.5t14.5 -4q21 0 35 8.5t26 25.5l7.5 10t8 12t6.5 10.5l3 4.5v13q-8 0 -14.5 -3.5t-14.5 -3.5q-11 0 -20.5 6 t-9.5 17q0 7 3.5 12t3.5 12q0 8 -5 8h-1q-4 -2 -8 -8t-8 -13t-8.5 -14t-9.5 -11q-1 -1 -7.5 -6t-7.5 -6l-11.5 -11l-18 -16.5l-18 -16.5l-11.5 -11h-1h-2l-3 3q-7 11 -11.5 19.5t-9 15.5t-10 13.5t-15.5 15.5v5q0 11 9.5 20t9.5 21h-12q-9 -18 -29 -37.5l-40 -37.5 t-35.5 -34t-15.5 -27z" />
<glyph unicode="s" horiz-adv-x="406" d="M17 -29h10q12 21 29 32t42 11q10 0 20.5 -8.5t15.5 -15.5l1 -1v-1v0q0 -1 -1 -1q0 -2 -2.5 -9.5t-3.5 -9.5v-1q0 -5 6 -5h4q15 20 39.5 36t52.5 31l56.5 30t51 32.5t37 39.5t14.5 50q0 35 -23.5 52t-55.5 17q-25 0 -42.5 -9t-31.5 -20t-28 -20t-32 -9q-21 0 -34.5 16.5 t-13.5 37.5q0 33 16 56.5t40 45.5l2.5 0.5t3.5 0.5q5 0 11 -4.5t12 -10.5t13 -11.5t13 -7.5q2 -1 9 -1h9q19 0 27 6t25 13l37 37q4 4 7 5.5t5 3t3 4.5t1 10q-14 0 -25 -7t-25 -7q-9 0 -24.5 4.5t-15.5 16.5v3q8 8 17 19.5t9 23.5q-11 0 -21 -13.5t-20 -19.5 q-29 -18 -63.5 -36.5t-64.5 -41.5t-50.5 -52.5t-20.5 -69.5q0 -29 17.5 -49.5t47.5 -20.5q22 0 39 9.5t31 21t28.5 21t32.5 9.5q26 0 40.5 -18.5t14.5 -41.5q0 -19 -7.5 -34.5t-20.5 -27.5t-29 -21.5t-32 -15.5l-1 -0.5t-2 -0.5l-3 1q-2 1 -9 6t-9 6q-23 12 -49 12 q-18 0 -40.5 -7.5t-42.5 -21t-33.5 -31t-13.5 -38.5z" />
<glyph unicode="t" horiz-adv-x="299" d="M16 -1h4q18 17 36.5 30t44.5 13q9 0 19.5 -3.5t19.5 -10t15 -15t6 -17.5v-3q-7 -7 -17.5 -19t-10.5 -24h6q22 23 42.5 36l46.5 31q5 3 13 9t16 13.5t14 15t6 14.5t-5 7l-1 -1q-7 -8 -13 -13t-17 -5h-4q-1 1 -6 4.5t-6 4.5q-15 9 -30.5 14t-32.5 5q-12 0 -36.5 -7.5 t-48.5 -19.5t-42.5 -27.5t-18.5 -31.5zM66 351q0 -2 0.5 -7.5t5.5 -5.5h49l6 -6v-25v-39q0 -2 -0.5 -8.5t-1 -14.5t-1 -14.5t-0.5 -8.5l-2 -34.5t-4 -32t-9.5 -30t-18.5 -28.5v-10q5 0 7 1l6 3l8.5 5.5l10.5 6.5t9.5 6l4.5 3q25 19 37.5 43.5t18.5 51.5t6.5 55.5t1.5 57.5 q1 3 1.5 11.5t8.5 8.5h58v32h-64v153q0 22 7.5 48.5t22.5 43.5q5 5 13 10.5t16 12t13.5 13t5.5 14.5q-21 0 -44.5 -15t-43.5 -36.5t-35 -45.5t-20 -42q-10 -38 -11.5 -75.5t-0.5 -77.5l-3 -5h-52q-4 0 -5 -8.5t-1 -10.5z" />
<glyph unicode="u" horiz-adv-x="429" d="M17 295q8 0 13 5.5t9 12t9.5 12t14.5 5.5q11 0 17 -8.5t9 -19.5t4 -22.5t1 -17.5v-48v-32q0 -14 -0.5 -27.5t-1.5 -28t-2 -32.5q-2 -9 -10 -16t-17.5 -13t-17 -12t-7.5 -12q30 0 48 -10t41 -29q7 -5 7 -12q0 -1 -0.5 -2l-0.5 -1l-18 -25v-12h9q12 19 27 34.5t31.5 29.5 l33 28.5t31.5 30.5q1 5 6.5 10.5t8.5 7.5l3 -3q2 -33 9.5 -54.5t33.5 -43.5v-5q0 -11 -6.5 -19t-6.5 -20q2 0 15.5 14l29.5 31.5l29 33t15 17.5q4 4 14.5 16.5t13.5 17.5v3q0 6 -6 6q-5 0 -8.5 -4t-6.5 -8.5t-7 -8.5t-10 -4q-10 0 -17.5 5.5t-13 13.5t-8.5 17.5t-3 18.5 q0 39 2 84.5l4 87.5l1.5 3.5t2.5 5.5q2 6 10 12.5t16.5 12t15.5 10.5t7 9v2q-3 3 -4 3h-1q-6 0 -11.5 -1.5t-12.5 -1.5t-16 3.5t-16.5 9.5t-13 13.5t-5.5 15.5v4l18 27v11q-11 0 -15.5 -11.5t-11.5 -17.5l-44.5 -35t-41.5 -38q-7 -8 -9 -12t-2 -15q6 0 9 3t5.5 6t5.5 6t9 3 q2 0 5 -0.5t5 -0.5q5 -4 12.5 -11.5t11.5 -15.5v-60v-51t-4.5 -41.5t-16 -37.5t-34.5 -37h-9q-15 0 -22 5.5t-18 19.5q-1 1 -2 4t-1 5v24q0 46 1.5 91.5t1.5 91.5v44q-2 5 -8 12.5t-12.5 14.5l-11.5 12l-5 5q0 6 2 10t2 11q-6 0 -10 -4l-37.5 -26t-32.5 -29l-13.5 -16 l-14 -16.5t-6.5 -7.5v-16z" />
<glyph unicode="v" horiz-adv-x="400" d="M17 307q10 0 16.5 8.5t18.5 8.5q17 0 26 -12.5t11 -27.5v-46q0 -35 1 -71t-8 -70q-3 -12 -13 -21.5t-21.5 -17.5t-20 -16t-8.5 -17q13 0 22 7t21 7q7 0 19 -5t24 -12.5t21 -16.5t9 -17q0 -7 -4 -11t-4 -12h8q6 5 14 12.5t17.5 15l18.5 14t17 10.5q22 13 48.5 27t49 31.5 t37.5 40.5t15 54q0 16 -4.5 29t-9.5 24t-9.5 22.5t-4.5 25.5q0 21 5.5 32t19.5 27v7q-6 0 -13.5 -4t-10.5 -6q-32 -19 -48.5 -44.5t-16.5 -63.5q0 -26 9.5 -49t9.5 -49q0 -28 -17.5 -47.5t-45.5 -19.5q-30 0 -46.5 23t-16.5 51v9q1 17 2 43.5l2 51.5t1.5 43l0.5 18l3 9 l3.5 4t8.5 9t10.5 10t8.5 8q1 1 4 3t5 3h2h1l25.5 -19.5t29.5 -11.5t28 6t26.5 15t23.5 19t20 19l4 0.5t8.5 2t8.5 4t4 5.5q0 6 -6 6q-14 0 -28 -7.5t-29 -7.5q-13 0 -24.5 8t-11.5 22q0 1 0.5 2t0.5 2l24 30l0.5 1t0.5 2q0 7 -5 7l-2 -1q-3 -4 -14.5 -15.5t-15.5 -14.5 q-3 -3 -14.5 -12l-26 -20.5l-28 -22t-20.5 -16.5q-2 -2 -9.5 -6t-9.5 -6h-1q-3 0 -5.5 10t-2.5 11q-3 8 -10 15.5t-14.5 14t-13 10.5t-5.5 5v1l15 22v10q-9 0 -14 -10t-10 -15l-83 -80q-3 -3 -3.5 -8.5t-0.5 -8.5z" />
<glyph unicode="w" horiz-adv-x="544" d="M17 292q10 0 16.5 7t16.5 7q23 0 29.5 -15.5t6.5 -34.5q0 -3 -0.5 -9.5t-0.5 -8.5q0 -7 -0.5 -24.5t-1 -37.5t-1 -38t-0.5 -25q-5 -20 -18.5 -35.5t-30.5 -26.5v-10q8 0 17.5 -1t16.5 -7q2 -2 7 -6.5t10 -10l10 -10.5l7 -7q0 -1 1 -4t2 -5v-1v-2q0 -2 -1.5 -8t-3 -13.5 t-3 -14t-1.5 -7.5v-2v-1q0 -3 3 -3h1h2l1.5 1t1.5 2l8.5 21.5t8 16.5t10.5 16t16 20q2 2 9.5 7l15.5 10.5t14.5 11t6.5 9.5q0 6 -6.5 10.5t-15 9.5t-15 12.5t-6.5 19.5q0 35 2 74.5t4 74.5q7 18 18.5 35t27.5 29h1q16 0 26.5 -6.5t15.5 -17t7 -23.5t2 -26v-181 q1 -7 3.5 -17.5t5.5 -16.5t10.5 -13t16 -14t14.5 -13t6 -10q0 -7 -5 -11t-5 -12q12 0 24 11.5t22 18.5q23 16 51.5 33.5t53 39t41.5 47.5t17 59q0 15 -5.5 28.5t-11.5 26t-11.5 25.5t-5.5 28q0 13 5 23.5t7 23.5l25 25l9 12t6 9v11q-11 0 -21 -5.5t-22 -5.5q-11 0 -25.5 5 t-14.5 19q0 11 9.5 21t9.5 23q0 2 -1 5.5t-4 3.5h-2q-5 -17 -19.5 -34.5t-32.5 -33.5l-36.5 -31t-30.5 -27q-2 -2 -4.5 -6t-4.5 -6q-5 3 -8 9t-4.5 13.5t-3.5 14.5t-6 12q-2 3 -8.5 8l-13.5 10t-12.5 8.5t-5.5 4.5q0 6 3.5 10.5t7.5 9t7.5 9.5t3.5 11v5q0 4 -5 4h-1 q-11 -13 -18.5 -27t-18.5 -25l-10 -10.5t-17.5 -17.5t-17.5 -17.5l-10 -10.5q-1 -1 -4.5 -5l-8 -9.5l-8 -10t-4.5 -5.5t-3 -3.5t-3 -2.5q-4 2 -5 7.5t-1 7.5q0 1 -1 6.5t-2 12t-2 11.5t-1 7q-2 7 -8.5 13.5t-13.5 12.5l-12.5 10.5t-5.5 8.5q0 8 4.5 14t4.5 13v1q0 3 -3 3 l-1 1q-2 0 -7.5 -7.5t-11.5 -17.5l-11.5 -19t-8.5 -12q-6 -6 -15.5 -14.5t-18.5 -18.5t-15.5 -20t-6.5 -19zM325 85v190q0 3 3 6q2 2 6 8t6 8q3 4 9 9.5l11 10.5t9.5 9l4.5 4h6q16 -17 30 -24t37 -9q-16 -19 -26.5 -38.5t-10.5 -44.5q0 -14 3.5 -26.5t8 -25.5t8 -25.5 t3.5 -26.5q0 -3 -0.5 -14t-0.5 -14q-4 -13 -14 -25t-24 -12q-22 0 -36.5 7t-26.5 24q-2 2 -4 5.5z" />
<glyph unicode="x" horiz-adv-x="354" d="M-24 -16q7 0 12 3.5l10 7t10.5 7t12.5 3.5q12 0 18 -6t14 -16q1 0 1 -1v-2q0 -10 -8 -18t-8 -19q0 -6 7 -6q3 0 5.5 4.5t4.5 10l4 11t4 8.5l52 64q7 18 18 31h2h1q3 -3 3 -7q0 -1 1.5 -5.5t3 -9.5t3 -9.5t1.5 -5.5q3 -7 10.5 -15t15.5 -15t14 -13t6 -9q0 -11 -9 -20.5 t-9 -21.5q0 -4 6 -4q8 0 11 9.5t7 14.5q3 4 10 12.5l14.5 17.5l13.5 16.5t8 9.5q6 7 17 17t22 21.5t19 22.5t8 19q-8 0 -12.5 -4.5t-8.5 -10t-8.5 -10t-11.5 -4.5q-17 0 -29 7t-20 18.5t-12 25.5t-4 29q0 44 2.5 83t1.5 85q0 2 3.5 7.5t6.5 5.5h2q9 -11 22.5 -22.5 t28.5 -11.5q11 0 22.5 6.5t20.5 16t15 21.5t6 23q-6 0 -14 2.5t-15.5 6.5t-13 10t-5.5 13v2q7 8 15 19.5t8 23.5h-8q-7 -15 -18.5 -27.5t-25 -24.5l-27 -23.5t-23.5 -22.5q-5 4 -6.5 7t-6.5 8q-4 6 -11.5 12l-15 11.5t-13.5 9.5t-6 5q0 8 7 17.5t7 24.5q-5 0 -8 -4t-6 -9 q0 -1 -2.5 -5.5t-5 -9.5t-4.5 -9.5t-3 -5.5q-13 -20 -31.5 -40.5t-35.5 -36.5q-4 -8 -4 -15h10l15 15l1.5 0.5t2.5 0.5q18 0 27 -10t12.5 -25t3 -31t-0.5 -28q0 -60 -3 -118q0 -4 -2 -10.5t-5 -12.5t-7 -10t-9 -4q-10 0 -18 5t-19 5q-14 0 -31 -8.5t-31.5 -21.5t-24.5 -28.5 t-10 -29.5z" />
<glyph unicode="y" horiz-adv-x="400" d="M17 299q7 0 11 4t7.5 8.5t7.5 8.5t11 4q12 0 19 -12t9 -22q0 -11 0.5 -37t1 -55l1 -55.5t0.5 -36.5q0 -1 0.5 -4t0.5 -5q0 -17 -9.5 -26t-21.5 -14.5l-21.5 -10t-9.5 -10.5v-4q9 0 24.5 -2.5t30.5 -7.5t26 -14t11 -23q0 -4 -1.5 -7t-1.5 -7q0 -5 3 -5.5t8 -0.5h7 q6 8 9 19.5t7 20.5q12 30 38.5 41t56.5 11q13 0 20 -7t10 -17.5t3.5 -23t0.5 -22.5q0 -70 -37 -129q-12 -19 -25 -37t-29.5 -32.5t-36 -23t-43.5 -8.5l-0.5 1t-0.5 2q5 8 10 14t5 18q0 20 -14 35.5t-34 15.5t-32 -15.5t-12 -35.5q0 -17 6.5 -27.5t17 -17.5t24.5 -9.5 t28 -2.5q28 0 53 11t46 29t38 40.5t29 45.5q2 4 9.5 18l16.5 31l17.5 33.5l12.5 24.5t8.5 19.5t8 23.5t5.5 23t2 20q0 23 -4 47.5t-11 47.5q-8 25 -16.5 47.5t-8.5 48.5q0 10 3.5 17t8 14t8.5 14t4 16q-10 0 -19 -6.5t-17 -16t-14 -19.5l-10 -17q-2 -3 -5 -8.5l-6 -11.5 l-5.5 -11t-2.5 -6q-5 -14 -7 -26.5t-2 -26.5q0 -17 4.5 -33t4.5 -33v-6q0 -3 -3 -3q-3 -1 -15 -1h-14q-16 0 -28.5 0.5t-28.5 3.5q-12 8 -12 24q0 38 1.5 75t1.5 75v13q0 3 -0.5 12t-1 19.5t-1 19.5t-0.5 13q-1 2 -3 9t-3 9q-2 4 -7 9t-10.5 9t-9.5 8t-4 7q0 7 3.5 12.5 t8 11.5t8 12.5t3.5 14.5q-6 0 -10.5 -4.5t-8 -10.5t-6.5 -12.5t-7 -10.5l-86 -82q-3 -4 -3.5 -10t-0.5 -9zM205 318q14 -13 26 -19t31 -6h17q14 9 27.5 13.5t27.5 17.5q3 3 10 9.5t14.5 14.5l14.5 15l10 10v3q0 6 -6 6q-14 0 -28 -8t-30 -8q-11 0 -22.5 5.5t-11.5 18.5 q0 8 4.5 14t9.5 12t9.5 12.5t4.5 14.5h-10q-19 -27 -43.5 -52.5l-48.5 -48.5q-5 -5 -5.5 -9t-0.5 -9v-6z" />
<glyph unicode="z" horiz-adv-x="229" d="M16 291q0 -8 5 -8t10 6t11.5 12.5t14.5 12.5t20 6q23 0 40.5 -20.5t17.5 -42.5q0 -11 -0.5 -22.5t-5.5 -21.5q-7 -14 -21.5 -26l-29 -24t-25.5 -23.5t-11 -23.5q21 0 37 -2t26.5 -9.5t15.5 -21t5 -37.5q0 -31 -13 -59.5t-28.5 -57t-28.5 -58t-13 -62.5q0 -37 19.5 -60 t56.5 -23q29 0 49 18.5t20 47.5q0 18 -10 29.5t-30 11.5t-31.5 -12t-11.5 -32q0 -9 3.5 -14.5t8 -9.5t8.5 -7t4 -6q0 -6 -7 -7t-11 -1q-22 0 -38.5 19t-16.5 41q0 45 24 80t52.5 66t52.5 62.5t24 70.5q0 38 -19.5 63t-57.5 33v6l11 11l17 16.5t16.5 16.5l10.5 11 q15 16 20 30t5 35q0 29 -19 50.5t-45 31.5q0 1 -0.5 2l-0.5 1q0 6 4.5 11.5l9.5 11.5t9.5 13t4.5 16h-12q-8 -19 -20.5 -33t-28.5 -28q-9 -8 -25.5 -19t-32.5 -23t-28 -24.5t-12 -23.5z" />
<glyph unicode="&#xaa;" horiz-adv-x="365" d="M17 141q0 -83 58 -144v-6q-2 -2 -5.5 -6t-7 -9t-7 -9.5t-4.5 -5.5l-6.5 -9t-3.5 -10q0 -6 7 -6q10 0 11.5 7t6.5 14q13 18 30.5 32t36 27t36 27t32.5 31h3q5 0 6 -3q8 -26 16.5 -43.5t29.5 -36.5v-1q0 -5 -4 -10t-8.5 -10t-8.5 -10.5t-4 -11.5t5 -6q7 0 11 10t9 15 q14 12 27.5 22l27.5 21l14.5 11.5l15.5 12.5t7 6v6l-6 2.5t-9 3.5l-20 9t-20.5 12.5t-15.5 16.5t-6 21v168q0 12 6 18t13.5 10t14 8t6.5 13v6q-24 2 -47.5 13t-41.5 27l-11 11t-7 8v3q12 11 20 20.5t8 25.5h-7q-35 -39 -70.5 -70.5l-73.5 -67.5q-4 -8 -10 -14t-11 -14 q-17 -32 -30 -65.5t-13 -69.5zM90 181q0 20 3 41.5t9.5 41.5t17 38t26.5 32h1q6 0 15.5 -4t18.5 -10t16 -14t7 -15v-183q0 -5 -5 -13t-12.5 -15.5t-15.5 -13t-14 -5.5q-21 0 -34 13.5t-20.5 32t-10 39t-2.5 35.5z" />
<glyph unicode="&#xad;" d="M18 217q24 12 52 12h162q10 -5 25.5 -7.5t32 -4t32.5 -1.5t27 1q5 -4 12.5 -5t13.5 -1q4 0 6 5.5t3.5 13t2 14.5t2.5 10q4 6 10 7.5t6 11.5q-20 0 -44.5 -4t-42.5 -6l-6 -3h-46q-8 -1 -19 -1.5t-18 -4.5h-55q-9 5 -22 4.5t-24 1.5l-38.5 9t-37.5 12l-0.5 0.5t-1.5 0.5 l-1 -1q-8 -9 -6.5 -13t0.5 -14q-1 -6 -5 -9.5t-8.5 -7t-8 -7.5t-3.5 -10v-3z" />
<glyph unicode="&#xb2;" horiz-adv-x="406" d="M18 29q0 -8 8 -10.5t13 -3.5q9 0 30 -0.5t45 -1t45.5 -1t30.5 -0.5h55q11 0 25.5 -3t26.5 -3q5 0 12 16t14.5 36.5t13.5 38.5t9 22q5 7 12.5 10l14 5.5t11.5 6.5t5 15q0 7 -3.5 13t-11.5 6t-16 -7.5t-16 -17.5t-15.5 -20.5t-14.5 -16.5q-6 -3 -17 -4.5t-16 -1.5h-194 q-5 0 -7 3.5t-2 7.5q0 7 7 16.5t17 19.5t19.5 18l14.5 12l15.5 12l25 19l25.5 19.5l17 13.5q1 1 5 3.5l4 2.5q2 2 8 6.5t8 6.5l48 43.5t41 51.5q14 23 19.5 49t5.5 53q0 29 -6.5 57.5t-20 53.5t-34.5 44.5t-50 30.5q-8 2 -23 7t-17 5h-71q-1 0 -6 -1.5t-10.5 -3.5t-10.5 -4 t-6 -3q-44 -19 -63.5 -60t-19.5 -86q0 -24 6.5 -47t19.5 -41.5t32.5 -30t45.5 -11.5q18 0 35.5 6t30.5 17t21 27t8 36q0 13 -4 27t-12 26t-20 19.5t-27 7.5t-26.5 -11.5t-11.5 -26.5q0 -14 9 -26.5t24 -12.5q13 0 23.5 7.5t18.5 7.5h2l6 -6v-14q0 -30 -21 -48t-50 -18 q-22 0 -39.5 10t-30 25.5t-19 35.5t-6.5 41q0 24 7.5 48t22.5 44t36 32.5t48 12.5q34 0 56 -13.5t34.5 -35.5t17.5 -50.5t5 -57.5q0 -37 -3.5 -67.5t-13 -58t-25.5 -53t-41 -51.5l-11 -10.5l-19.5 -18.5l-19.5 -18.5l-11 -10.5q-28 -28 -49.5 -55.5t-36.5 -63.5 q-4 -10 -8 -23.5t-4 -24.5z" />
<glyph unicode="&#xb3;" horiz-adv-x="362" d="M17 150q0 -31 11.5 -56.5t32 -43.5t47.5 -28t57 -10q36 0 68.5 12t57.5 34t39.5 53t14.5 68q0 38 -15 71t-43 59q-3 3 -12.5 8.5l-20 11.5t-18.5 11.5t-8 7.5v1q1 1 4.5 3t5.5 3q2 2 12 6.5t12 6.5q32 21 47 54t15 70q0 35 -13.5 64t-36 50t-53 32.5t-63.5 11.5 q-25 0 -47 -9t-39 -24.5t-27 -37.5t-10 -47q0 -19 4.5 -38.5t14.5 -35t26 -25.5t38 -10q28 0 49.5 19t21.5 48q0 19 -10.5 37t-32.5 18q-16 0 -23.5 -11t-7.5 -26t6 -22.5t21 -7.5q7 0 12.5 2.5t11.5 2.5q0 -19 -12 -30.5t-33 -11.5q-18 0 -31.5 7.5t-22 20t-13 28.5 t-4.5 32q0 20 7.5 38.5t20.5 32.5t30.5 22.5t38.5 8.5q32 0 49.5 -14t26 -36t10.5 -48t2 -51v-28q0 -14 -1.5 -29t-6.5 -29t-14 -25q-2 -3 -7 -8l-5 -5h-80q-13 0 -30 -8t-17 -23q17 0 33 6.5t34 6.5q38 0 61.5 -14.5t36 -38.5t16.5 -54.5t4 -62.5q0 -26 -4 -52t-15 -47 t-30.5 -34t-50.5 -13q-25 0 -49 10.5t-42.5 27.5t-30 40t-11.5 49q0 19 6.5 36t18.5 30t28 20.5t35 7.5q16 0 31 -5t27 -15t19 -23.5t7 -31.5q0 -5 -2 -12t-5 -13.5t-8 -11.5t-11 -5h-2q0 1 -1.5 2t-1.5 2q3 17 -3.5 33t-26.5 16q-17 0 -24 -11.5t-7 -26.5q0 -20 12 -29.5 t31 -9.5q31 0 46 22.5t15 51.5q0 19 -7.5 35t-20 27t-29.5 17.5t-35 6.5q-24 0 -43 -9.5t-32 -25t-19.5 -36.5t-6.5 -43z" />
<glyph unicode="&#xb9;" horiz-adv-x="312" d="M16 581q0 -17 12 -25t28 -8q13 0 24.5 5t24.5 5q10 0 17.5 -7t6.5 -18q0 -14 0.5 -50t1 -76t1 -75.5t0.5 -49.5q0 -2 0.5 -14.5t0.5 -28.5v-33v-25v-21v-30t-0.5 -30.5t-0.5 -20.5q-5 -21 -16.5 -29.5t-24.5 -11.5t-22.5 -4t-9.5 -8v-5q0 -2 3 -3q8 0 27.5 -0.5t41.5 -1 t41.5 -1t27.5 -0.5h41h42q5 0 8.5 3t3.5 8t-11.5 7t-25.5 5.5t-25.5 10.5t-11.5 24v512q0 33 13 49.5t39 33.5q5 3 5 8v11q-14 0 -20 -4t-18 -9q-7 -5 -25 -16.5l-38 -25l-38 -25t-25 -16.5q-9 -6 -21.5 -12t-24.5 -6q-5 0 -6 5t-3 10.5t-6.5 10.5t-16.5 5h-11q-7 -5 -8 -10 t-1 -13z" />
<glyph unicode="&#xba;" horiz-adv-x="310" d="M17 133q0 -30 8.5 -54.5t25.5 -49.5q3 -5 13 -13.5t20.5 -16.5l19 -14t8.5 -7v-1q-5 -7 -12 -14.5t-7 -16.5q0 -6 7 -6q3 0 6 3q23 31 51.5 56.5t55.5 53.5q1 2 3 5t3 5q1 1 5.5 6t10 10.5t10 10.5t5.5 6q23 31 33 62t10 69v17q0 3 -2 12l-4 18.5t-3.5 18.5t-2.5 12 q-11 16 -19 32t-24 29q-8 7 -19 13t-18 15q5 6 15 20t10 24q0 2 -1 2l-1 1.5t-2 1.5h-1q-5 0 -9.5 -9.5t-7.5 -12.5l-12.5 -12.5t-12.5 -11.5l-62.5 -57t-51.5 -57.5t-35 -66.5t-13 -83zM90 168v17v20t1 14q0 1 0.5 6t1.5 11.5l2 13t2 9.5q1 6 4.5 18t8.5 23.5t11.5 20.5 t14.5 9q18 0 33.5 -11.5t27.5 -29t20.5 -36.5t11.5 -34v-34q0 -14 -1.5 -36t-7 -42.5t-16.5 -35.5t-31 -15q-18 0 -32 9.5t-24 23.5t-16.5 31t-9.5 32q-1 4 -1 16z" />
<glyph unicode="&#xc2;" horiz-adv-x="708" d="M174 1012q0 -51 14.5 -91t52.5 -73q5 -3 16.5 -8t11.5 -11q0 -9 -6.5 -15.5t-6.5 -15.5q0 -8 5 -8q1 0 6 5.5t10 12l9.5 12.5t6.5 7q9 7 24.5 17t29.5 21.5t24.5 24t10.5 26.5q0 6 -6 6h-3q-8 -9 -15.5 -15.5t-19.5 -6.5h-2q-4 1 -12 3.5t-9 2.5q-21 9 -35.5 23.5t-24 33 t-13.5 39t-4 41.5q0 7 0.5 26.5t3.5 39.5t10 36t19 16q10 0 17 -5t17 -5q13 0 29 8.5t29.5 21t23 27.5t9.5 28q-14 0 -27.5 -6.5t-35.5 -7.5q-3 2 -7.5 4.5t-4.5 7.5t4 10.5l8.5 11.5t8.5 12.5t4 13.5v1q-3 3 -7 3h-1q-5 0 -8.5 -8t-5.5 -10q-1 -2 -7 -9t-8 -10l-47 -51 t-43.5 -56t-32 -61.5t-12.5 -68.5zM403.5 952.5q-0.5 -34.5 9.5 -67.5l4 -11.5t7 -16.5t8 -14.5t8 -6.5q1 0 6.5 7.5l12.5 17.5l13.5 18.5t10.5 11.5t10.5 4.5l12.5 3t10.5 5t4.5 9.5q0 4 -5.5 9t-13.5 10t-16 11t-12 12v65v61t3 61q1 5 9.5 15.5t19 21.5t21.5 19.5t18 8.5 q8 0 15.5 -8.5t14.5 -13.5q2 -1 9.5 -6t9.5 -6l18 -18q3 -4 3 -9v-10q0 -19 -11 -34.5t-27 -28t-34 -23l-32 -18.5q-3 -4 -3 -9v-3q8 -3 14 -4l11.5 -2t11.5 -2.5t15 -7.5q15 -10 22.5 -29.5t13.5 -42t15 -45.5t29 -39v-3q-7 -6 -19 -18.5t-12 -24.5q0 -6 5 -6q2 0 5.5 4 t6.5 8.5l6 9t5 6.5q12 9 31.5 21.5t39 27.5t33.5 31.5t14 34.5q-6 0 -10 -4t-7 -9.5t-7 -9.5t-10 -4q-15 0 -22 3t-11 8t-6.5 11.5t-8.5 14.5q-1 2 -7.5 8t-7.5 8t-1.5 12t-1.5 12q-7 26 -21.5 46t-39.5 31v3l5.5 6t9.5 9q12 10 25.5 19.5t25 20t19 23.5t7.5 31 q0 17 -5 26.5t-13 15.5t-18.5 10.5t-22.5 12.5q-4 3 -11 10t-7 9v6l31 37v10q-6 0 -11 -4.5t-9.5 -10.5l-9 -11.5t-7.5 -8.5t-9 -8l-12 -10l-10.5 -8.5t-5.5 -4.5q-4 -3 -17.5 -14l-29 -23.5l-27.5 -22.5t-13 -10h-2l-1.5 1t-1.5 2v29v29q0 3 0.5 14.5l1 24l1 24t0.5 14.5 q1 27 1 63t8 67.5t28 53.5t60 22q2 0 10 -0.5t10 -0.5q7 -2 14.5 -6.5t12.5 -11.5q-3 -6 -10.5 -8t-15.5 -5t-14 -11t-6 -27q0 -20 11.5 -34t32.5 -14q24 0 37.5 16t13.5 40q0 20 -10 35.5t-25 26t-33.5 16t-36.5 5.5q-22 0 -47 -7.5t-46.5 -21.5t-37 -34t-18.5 -45l-9 -73 q0 -1 -0.5 -15t-1 -37t-0.5 -51t-0.5 -57t-0.5 -56v-45v-81q0 -34 -0.5 -68.5zM17 -8q0 -28 19.5 -40.5t45.5 -12.5q59 0 108 31t87 73h5q5 0 6 -0.5t5 -5.5q9 -11 14.5 -18.5t9 -15t5 -17t1.5 -23.5h7q7 0 12.5 5t10 12t8 13.5t5.5 9.5l6 6q1 1 6.5 7t11 13t10.5 12.5 t6 7.5q4 4 11 10l14 12t12.5 11.5t5.5 10.5q0 9 -6 9q-8 0 -20 -10t-17 -15l-10.5 -10.5t-10.5 -11.5h-2q-1 0 -6 6l-11 13.5t-10.5 14.5t-4.5 9q0 5 6 9q2 2 10.5 8l11.5 8q2 1 8 5t12 7.5l11.5 7t7.5 4.5q2 2 11.5 6t13.5 6q3 2 9 4.5l6 2.5l6 -7q7 -49 21.5 -89.5 t46.5 -78.5q3 -3 6 -3h1q6 0 12.5 9t12.5 20.5l11.5 22.5t8.5 15q14 20 31.5 41.5t35.5 38.5h2q6 0 10 -5.5t6 -12.5t3 -14t1 -11q0 -26 -9.5 -46t-21.5 -43q-23 -26 -49 -36t-59 -10q-23 0 -44 5t-44 5q-11 0 -25 -3.5t-26 -10.5t-20.5 -17.5t-8.5 -24.5q0 -11 6 -18 t14.5 -11t19 -6t19.5 -2v-1q0 -2 -8 -9t-8 -17q0 -7 3.5 -11.5t7.5 -9t7.5 -9.5t3.5 -13h15q2 0 2.5 7t0.5 9q0 5 -3 7.5t-6.5 4t-6.5 4t-3 7.5q0 6 5 9.5t10.5 7t10.5 7.5t5 12q0 9 -9 14.5t-17 5.5q-9 0 -17.5 -3t-17.5 -3q-5 0 -8.5 3.5t-3.5 8.5q0 14 16 27t30 13 q20 0 39 -6.5t39 -6.5q33 0 65 9.5t57.5 28t41 46.5t15.5 65q0 19 -6.5 37t-14.5 35q0 1 -0.5 1.5l-0.5 0.5l1 1q1 2 6 6.5t6 6.5v2q0 6 -3 6.5t-8 0.5t-9 -1.5t-9 -1.5q-7 0 -17.5 8t-14.5 10q-24 11 -43 14t-46 1l-3 4l-0.5 4t-1 10l-1 12t-0.5 10v17q0 19 0.5 32.5 t2.5 36.5q0 3 3 3h1q10 0 18.5 -1.5t18.5 -1.5h23q7 2 12.5 6.5t11 9.5t11 8.5t13.5 3.5q6 0 10 -6q-1 -9 -1 -17t1.5 -14t6.5 -9.5t15 -3.5q9 0 12 4t4 8.5t1.5 8.5t5.5 4q7 0 10.5 -9t13.5 -9q8 0 8 4q0 2 -4 6t-9.5 8t-10.5 7t-8 3q-7 0 -9.5 -3.5t-4 -7.5t-3.5 -7.5 t-6 -3.5q-7 0 -9 6q4 17 -5 34.5t-29 17.5q-10 0 -17 -3.5t-12.5 -7.5l-11.5 -8t-14 -5q-2 -1 -13.5 -2t-17.5 -1h-2q-2 0 -9 2t-7 7v110l23.5 35.5t23.5 40.5t18.5 43t7.5 43q0 36 -18 61.5t-56 25.5q-24 0 -43.5 -14t-35.5 -30h-3q-8 0 -20 10.5t-20 14.5q-28 13 -59.5 19 t-62.5 6q-45 0 -89.5 -15.5t-80 -44t-57.5 -68.5t-22 -89v-1q1 -6 2 -16l2 -19.5t1.5 -17t0.5 -8.5q2 -10 7.5 -20t5.5 -19v-1l-16 -16v-4q0 -2 0.5 -5t4.5 -3h2q1 1 8.5 3.5t9.5 2.5h1h2q10 -12 19 -21t18 -16t19 -14l24 -16q3 -2 13.5 -6t22.5 -7.5t21.5 -7t9.5 -4.5v-10 q0 -31 -14 -62t-29 -56q-5 -8 -13 -15t-11 -16q-2 -7 0 -9t-6 -6l-43.5 -22t-38.5 -25.5t-27.5 -34.5t-10.5 -49zM23 -1q0 22 10 37.5t25.5 26.5t34 18.5l34.5 13.5h23q31 0 59 -6.5t53 -24.5q3 0 3 -3v-1v-2q-18 -19 -38 -37.5t-42 -33.5t-46.5 -24t-52.5 -9q-11 0 -22 2 t-20 7.5t-15 14t-6 21.5zM58 469q0 49 14 93t42 77t69 52.5t95 19.5q40 0 78.5 -13.5t64.5 -44.5q1 -1 1 -5q0 -19 -11 -41.5t-11 -49.5v-5q0 -4 1 -14t2 -21.5t2 -21.5t1 -14q5 -17 14 -34l17 -33v-2q0 -5 -4.5 -6.5t-8.5 -1.5q-20 0 -31 11t-21 26l-1 0.5t-2 0.5 q-5 0 -7 -5.5t-3 -12.5t-1 -14q0 -6 -1 -8q-6 -23 -14 -41t-26 -33h-1h-2l-1.5 1t-1.5 2q14 36 21 69t7 71q0 23 -3.5 45t-12.5 45q-4 11 -12.5 25t-8.5 25v5q10 12 18 25.5l16 26.5v5q0 3 -1.5 8.5t-6.5 5.5q-6 0 -10 -5.5t-7.5 -12t-6.5 -13t-5 -9.5q-4 -6 -13 -17 l-18 -22.5l-17 -21.5t-10 -13l-10.5 -10.5l-18 -18l-19 -19t-14.5 -13.5q-2 -2 -7 -6.5l-11 -9.5l-12 -10t-9 -8q-12 -9 -27 -19t-26 -18q-3 -3 -6 -3t-3 3v22q0 46 21.5 82t61.5 59q10 5 11.5 5.5t12.5 0.5q14 0 18.5 -6.5t12.5 -6.5q1 0 2 0.5l1 0.5q4 4 12.5 11.5 l17 15.5t14.5 17t6 16q0 6 -4 8.5t-10 4t-12 1.5h-10q-21 0 -42.5 -8t-38.5 -20q-26 -18 -42.5 -36t-26.5 -38.5t-14.5 -45t-5.5 -55.5h-5zM90 403q0 1 8 9.5t18.5 17.5t20.5 16.5t15 7.5q8 0 15.5 -5.5t13.5 -13.5t10.5 -16t6.5 -14l7 -24t5 -19.5t2.5 -19.5t0.5 -25 q-14 0 -34.5 7.5t-40.5 19.5t-34 27.5t-14 31.5zM169 133l0.5 0.5t0.5 1.5q9 12 22 22t24 21q25 26 44.5 56.5t35.5 62.5q7 10 19.5 13t23.5 3t18 -5.5t12 -11.5l9.5 -11.5t12.5 -5.5h6q1 4 4.5 15.5t4.5 15.5q1 3 3.5 8.5t4.5 12t4 11.5t3 7l9 18t10 19q2 3 5.5 5t6.5 2 t6 -1t3 -6v-196q0 -3 -8 -5.5t-10 -3.5q-2 -2 -10.5 -5l-11.5 -4l-88 -55q-1 -1 -3 -1h-4h-5t-4 1q-1 0 -6.5 1.5t-11.5 4t-11.5 4.5t-6.5 2q-2 0 -8 0.5t-14 1l-15.5 1t-11.5 0.5h-13t-19 0.5t-19 0.5h-12zM222 224v3q0 5 4 13.5t6 13.5q1 4 3 10.5l4 12.5t3.5 10l1.5 4 l6 6l3 -3q0 -1 -2.5 -8.5l-6.5 -19t-6 -18.5q-2 -5 -6 -12.5t-10 -11.5zM222 518v2v1l16 15l1 1q5 0 10 -8.5t7 -13.5q9 -26 14 -51t5 -52v-19t-0.5 -13t-2 -13t-4.5 -18q-2 -7 -5 -18.5t-4 -11.5h-3q0 12 0.5 25t5.5 24v23q0 19 -0.5 38t-8.5 37q-7 16 -15 27t-16 25z M418 544v32q0 1 1.5 6t3 12l3 14t2.5 11q1 6 1 8t4 2q5 0 7 -4q17 -31 21 -65.5t4 -69.5q0 -17 -0.5 -32t-3.5 -32h-3q-5 0 -9 6q-20 29 -25.5 53t-5.5 59zM455 668v2q0 6 7.5 12t17 10.5t19.5 7t15 2.5q29 0 43.5 -24.5t14.5 -51.5q0 -12 -4 -29t-11 -34.5t-15.5 -33 t-18.5 -23.5q-3 0 -3 3q-7 26 -11 49t-17 49q-1 2 -6 10.5l-10.5 17.5t-11 17t-6.5 10q0 1 -1.5 3t-1.5 3zM534 173q0 2 0.5 7t0.5 7q1 3 3 3h4q4 0 19.5 -1.5t32 -5t29.5 -9.5t13 -15q0 -5 -8 -16t-19 -22t-22 -20t-16 -9q-10 0 -17 10.5t-11.5 24.5t-6.5 27t-2 19z" />
<glyph unicode="&#xca;" horiz-adv-x="696" d="M162 1103q0 -51 14.5 -91t52.5 -73q5 -3 16.5 -8t11.5 -11q0 -9 -6.5 -15.5t-6.5 -15.5q0 -8 5 -8q1 0 6 5.5t10 12l9.5 12.5t6.5 7q9 7 24.5 17t29.5 21.5t24.5 24t10.5 26.5q0 6 -6 6h-3q-8 -9 -15.5 -15.5t-19.5 -6.5h-2q-4 1 -12 3.5t-9 2.5q-21 9 -35.5 23.5t-24 33 t-13.5 39t-4 41.5q0 7 0.5 26.5t3.5 39.5t10 36t19 16q10 0 17 -5t17 -5q13 0 29 8.5t29.5 21t23 27.5t9.5 28q-14 0 -27.5 -6.5t-35.5 -7.5q-3 2 -7.5 4.5t-4.5 7.5t4 10.5l8.5 11.5t8.5 12.5t4 13.5v1q-3 3 -7 3h-1q-5 0 -8.5 -8t-5.5 -10q-1 -2 -7 -9t-8 -10l-47 -51 t-43.5 -56t-32 -61.5t-12.5 -68.5zM391.5 1043.5q-0.5 -34.5 9.5 -67.5l4 -11.5t7 -16.5t8 -14.5t8 -6.5q1 0 6.5 7.5l12.5 17.5l13.5 18.5t10.5 11.5t10.5 4.5l12.5 3t10.5 5t4.5 9.5q0 4 -5.5 9t-13.5 10t-16 11t-12 12v65v61t3 61q1 5 9.5 15.5t19 21.5t21.5 19.5t18 8.5 q8 0 15.5 -8.5t14.5 -13.5q2 -1 9.5 -6t9.5 -6l18 -18q3 -4 3 -9v-10q0 -19 -11 -34.5t-27 -28t-34 -23l-32 -18.5q-3 -4 -3 -9v-3q8 -3 14 -4l11.5 -2t11.5 -2.5t15 -7.5q15 -10 22.5 -29.5t13.5 -42t15 -45.5t29 -39v-3q-7 -6 -19 -18.5t-12 -24.5q0 -6 5 -6q2 0 5.5 4 t6.5 8.5l6 9t5 6.5q12 9 31.5 21.5t39 27.5t33.5 31.5t14 34.5q-6 0 -10 -4t-7 -9.5t-7 -9.5t-10 -4q-15 0 -22 3t-11 8t-6.5 11.5t-8.5 14.5q-1 2 -7.5 8t-7.5 8t-1.5 12t-1.5 12q-7 26 -21.5 46t-39.5 31v3l5.5 6t9.5 9q12 10 25.5 19.5t25 20t19 23.5t7.5 31 q0 17 -5 26.5t-13 15.5t-18.5 10.5t-22.5 12.5q-4 3 -11 10t-7 9v6l31 37v10q-6 0 -11 -4.5t-9.5 -10.5l-9 -11.5t-7.5 -8.5t-9 -8l-12 -10l-10.5 -8.5t-5.5 -4.5q-4 -3 -17.5 -14l-29 -23.5l-27.5 -22.5t-13 -10h-2l-1.5 1t-1.5 2v29v29q0 3 0.5 14.5l1 24l1 24t0.5 14.5 q1 27 1 63t8 67.5t28 53.5t60 22q2 0 10 -0.5t10 -0.5q7 -2 14.5 -6.5t12.5 -11.5q-3 -6 -10.5 -8t-15.5 -5t-14 -11t-6 -27q0 -20 11.5 -34t32.5 -14q24 0 37.5 16t13.5 40q0 20 -10 35.5t-25 26t-33.5 16t-36.5 5.5q-22 0 -47 -7.5t-46.5 -21.5t-37 -34t-18.5 -45l-9 -73 q0 -1 -0.5 -15t-1 -37t-0.5 -51t-0.5 -57t-0.5 -56v-45v-81q0 -34 -0.5 -68.5zM17 11q0 -16 7 -28t18.5 -20.5t26 -13t28.5 -4.5q21 0 39.5 4t36 9.5t35 12t36.5 11.5l55 37h5h7q2 -1 11 -5t11 -4q3 -2 10.5 -4.5l15.5 -5l14.5 -4.5t8.5 -2q21 -5 33.5 -5.5t32.5 -0.5 q54 0 100 18.5t88 52.5h3q5 0 7.5 -6.5t4 -15.5t1.5 -18v-11q0 -26 -13.5 -46.5t-34 -34.5t-45.5 -21t-47 -7h-21t-20 3q-27 15 -60 30.5t-65 15.5q-17 0 -29 -12t-12 -29q0 -5 2.5 -8t6 -5.5t6 -6t2.5 -9.5h-48l-3 -3q1 -3 1 -11q0 -9 -1 -11q0 -1 -4 -4.5t-5 -4.5l-1 -5 q13 0 16 4t3 9v10t7 7q5 -1 20 -1t20 1q12 0 12 12q0 5 -3.5 8.5t-7.5 6t-7.5 5t-3.5 6.5t5.5 6.5t12 3.5t12.5 1h10q19 0 36 -5t33.5 -10.5t34 -10.5t37.5 -5q30 0 59.5 8t53.5 24.5t38.5 42t14.5 59.5q0 14 -6.5 27.5t-6.5 27.5v1q1 2 5 8t5 7q1 3 4.5 10l4.5 9 q5 14 7 27.5t2 28.5q0 42 -24 71t-66 29q-25 0 -47.5 -12t-22.5 -40v-7q0 -4 1 -5q3 -7 5.5 -8.5t7.5 -1.5q6 0 13.5 2t7.5 10t-6.5 13t-6.5 11q0 18 16 23.5t31 5.5q20 0 35 -8t25.5 -21.5t16 -30.5t5.5 -36q0 -5 -2.5 -17.5t-6.5 -25.5t-9.5 -23t-12.5 -10h-3q-2 1 -9 6 t-9 6q-3 1 -8.5 4t-12 6l-12 5.5t-7.5 3.5q-17 6 -35.5 7.5t-36.5 1.5q-35 0 -66.5 -10t-63.5 -24q-2 0 -5 -1t-5 -2h-1h-2l-2.5 1.5t-3.5 1.5q-5 2 -16.5 6l-24.5 8.5t-25 8t-17 5.5q-3 1 -3 6v3q27 28 45.5 54t29.5 54t14.5 60t2.5 71q11 19 24 36t40 17q7 0 16.5 -3 t18.5 -8.5t15 -13t6 -16.5v-6q-20 -26 -36.5 -54.5t-16.5 -61.5q0 -12 2 -20t16 -8q5 0 11 1.5t6 9.5q0 6 -8 16t-8 22q0 32 22 58t48.5 49.5t48.5 46.5t22 50q0 9 -2 15t-11 6q0 -6 2 -11t2 -10q0 -8 -5 -22t-15 -14q-8 0 -15 6.5t-14 9.5q-23 10 -51 10q-26 0 -47 -10 t-40 -27q-3 -3 -8.5 -10t-10.5 -14.5t-10 -13.5t-6 -6q-2 0 -6.5 8.5t-9.5 20l-9.5 22t-6.5 14.5l-8 15.5l-8 15.5v3q0 5 3 6q25 2 46 12.5t36 27t23.5 38.5t8.5 46q0 23 -11.5 40t-22.5 35q1 3 6 3q35 0 60.5 -22t25.5 -59q0 -11 -6.5 -20l-14 -18.5t-13.5 -20t-6 -23.5 q4 0 9 6t10 14l10 16t8 11q12 13 32 26.5l39.5 28t33.5 31.5t14 39q0 6 -4.5 14t-11.5 8h-2q-1 -1 -3.5 -2l-2.5 -1l-0.5 -0.5t-0.5 -1.5l1 -1q1 -2 6 -6.5t6 -6.5v-2q0 -6 -5 -18.5t-13 -12.5q-5 0 -7.5 4.5t-5.5 7.5q-2 3 -9 10t-9 8q-14 11 -31.5 16.5t-34.5 5.5 q-24 0 -48.5 -5.5t-47.5 -13.5h-3q-8 0 -13.5 5t-11.5 8q-17 6 -35.5 10.5t-36.5 4.5q-49 0 -90.5 -17.5t-71.5 -48.5t-47 -73t-17 -91t15.5 -96.5t49.5 -84.5q18 -20 39 -37t39 -36.5t30 -42t12 -52.5q0 -8 -0.5 -19t-9.5 -15q-24 0 -60 -5t-69.5 -18.5t-57.5 -36 t-24 -55.5zM29 10q0 22 10 36t25 21.5t33.5 10t36.5 2.5t38.5 -2t40.5 -7.5t37.5 -15t30.5 -24.5q-12 -16 -34 -29.5t-47 -23.5t-50 -15.5t-44 -5.5q-13 0 -26.5 2.5t-25 9t-18.5 16.5t-7 25zM69 524q0 67 32 110t88 77q39 16 85 16q6 0 19 -1t26.5 -3t25 -6.5t15.5 -11.5 q-8 -10 -19.5 -16.5t-20.5 -13.5l-7.5 -7.5l-11 -11t-10.5 -11t-7 -7.5q-3 -3 -3 -6q-16 -26 -27 -52t-16 -56q-3 0 -3 -3h-2q-3 0 -11.5 3t-8.5 8q0 22 10 45t21 42v5q-11 0 -18 -11.5t-13.5 -25t-14 -24.5t-17.5 -11q-2 0 -6.5 3t-9 7.5t-8.5 8t-5 5.5q-14 16 -21 25.5 t-16 30.5h-2q0 -27 19 -48t38 -38l3 -3v-2v-1q-10 -11 -28 -25t-27 -27v-2v-1q15 -2 15 -7t4 -18q6 -24 13.5 -42t22.5 -38q2 -3 11.5 -13.5l20.5 -23l20.5 -23t12.5 -13.5q13 -16 22 -34.5l17 -36.5q1 -2 1 -11v-12q0 -20 -4 -39t-21 -33l-3 3q5 35 -6.5 66t-32 60 t-45 57.5t-46.5 59t-36.5 64.5t-14.5 73zM96 671h4q1 12 4 29t10 32.5t18 26.5t29 11q4 0 7 -2.5t6 -5.5t7 -5.5t11 -2.5q9 0 11.5 5t3.5 10.5t3 10.5t9 5t12.5 -1.5t12.5 -1.5h12q8 6 10.5 17.5t2.5 21.5q-10 0 -14 -4t-6.5 -9.5t-5.5 -9.5t-9 -4q-5 0 -9.5 1.5t-9.5 1.5 q-8 0 -10 -5t-2.5 -10.5t-2 -10.5t-8.5 -5q-8 0 -12.5 6.5t-13.5 6.5q-22 0 -35.5 -10.5t-21 -26.5t-10.5 -35t-3 -36zM213 500q0 6 1.5 9.5t7.5 3.5q5 0 8 -1t5 -6q7 -17 7 -35t8 -35q9 -20 19.5 -39t20 -38t15.5 -39t6 -42v-23q0 -5 -1 -13.5t-2 -8.5h-3q-2 29 -8 63 t-23 60l-22 34.5t-19.5 33.5t-14 35.5t-5.5 40.5zM286 172q0 5 4 6v-3q0 -5 -3 -6zM291 184q0 3 2 3t2 -3t-2 -3t-2 3zM292 571q0 36 12 61.5t44 45.5l12.5 7.5t14.5 4.5q8 0 16 -9.5t14 -22t10 -24.5t4 -17q0 -21 -8.5 -40.5t-23 -34t-34 -23t-40.5 -8.5q-2 0 -6 0.5 t-5 0.5l-3 3q-1 1 -3.5 13t-2.5 18q0 1 -0.5 10.5t-0.5 14.5zM391 77v1q0 4 12 9.5t27.5 10.5t30 9t19.5 4h29q16 0 29 -1.5t25.5 -5t25.5 -8l29 -10.5q3 -1 7.5 -3.5t4.5 -7.5v-1q-22 -27 -52 -36.5t-63 -9.5q-32 0 -66 14t-58 35z" />
<glyph unicode="&#xce;" horiz-adv-x="499" d="M151 1048q0 -51 14.5 -91t52.5 -73q5 -3 16.5 -8t11.5 -11q0 -9 -6.5 -15.5t-6.5 -15.5q0 -8 5 -8q1 0 6 5.5t10 12l9.5 12.5t6.5 7q9 7 24.5 17t29.5 21.5t24.5 24t10.5 26.5q0 6 -6 6h-3q-8 -9 -15.5 -15.5t-19.5 -6.5h-2q-4 1 -12 3.5t-9 2.5q-21 9 -35.5 23.5t-24 33 t-13.5 39t-4 41.5q0 7 0.5 26.5t3.5 39.5t10 36t19 16q10 0 17 -5t17 -5q13 0 29 8.5t29.5 21t23 27.5t9.5 28q-14 0 -27.5 -6.5t-35.5 -7.5q-3 2 -7.5 4.5t-4.5 7.5t4 10.5l8.5 11.5t8.5 12.5t4 13.5v1q-3 3 -7 3h-1q-5 0 -8.5 -8t-5.5 -10q-1 -2 -7 -9t-8 -10l-47 -51 t-43.5 -56t-32 -61.5t-12.5 -68.5zM380.5 988.5q-0.5 -34.5 9.5 -67.5l4 -11.5t7 -16.5t8 -14.5t8 -6.5q1 0 6.5 7.5l12.5 17.5l13.5 18.5t10.5 11.5t10.5 4.5l12.5 3t10.5 5t4.5 9.5q0 4 -5.5 9t-13.5 10t-16 11t-12 12v65v61t3 61q1 5 9.5 15.5t19 21.5t21.5 19.5t18 8.5 q8 0 15.5 -8.5t14.5 -13.5q2 -1 9.5 -6t9.5 -6l18 -18q3 -4 3 -9v-10q0 -19 -11 -34.5t-27 -28t-34 -23l-32 -18.5q-3 -4 -3 -9v-3q8 -3 14 -4l11.5 -2t11.5 -2.5t15 -7.5q15 -10 22.5 -29.5t13.5 -42t15 -45.5t29 -39v-3q-7 -6 -19 -18.5t-12 -24.5q0 -6 5 -6q2 0 5.5 4 t6.5 8.5l6 9t5 6.5q12 9 31.5 21.5t39 27.5t33.5 31.5t14 34.5q-6 0 -10 -4t-7 -9.5t-7 -9.5t-10 -4q-15 0 -22 3t-11 8t-6.5 11.5t-8.5 14.5q-1 2 -7.5 8t-7.5 8t-1.5 12t-1.5 12q-7 26 -21.5 46t-39.5 31v3l5.5 6t9.5 9q12 10 25.5 19.5t25 20t19 23.5t7.5 31 q0 17 -5 26.5t-13 15.5t-18.5 10.5t-22.5 12.5q-4 3 -11 10t-7 9v6l31 37v10q-6 0 -11 -4.5t-9.5 -10.5l-9 -11.5t-7.5 -8.5t-9 -8l-12 -10l-10.5 -8.5t-5.5 -4.5q-4 -3 -17.5 -14l-29 -23.5l-27.5 -22.5t-13 -10h-2l-1.5 1t-1.5 2v29v29q0 3 0.5 14.5l1 24l1 24t0.5 14.5 q1 27 1 63t8 67.5t28 53.5t60 22q2 0 10 -0.5t10 -0.5q7 -2 14.5 -6.5t12.5 -11.5q-3 -6 -10.5 -8t-15.5 -5t-14 -11t-6 -27q0 -20 11.5 -34t32.5 -14q24 0 37.5 16t13.5 40q0 20 -10 35.5t-25 26t-33.5 16t-36.5 5.5q-22 0 -47 -7.5t-46.5 -21.5t-37 -34t-18.5 -45l-9 -73 q0 -1 -0.5 -15t-1 -37t-0.5 -51t-0.5 -57t-0.5 -56v-45v-81q0 -34 -0.5 -68.5zM17 164q0 -41 13.5 -74t38.5 -55.5t59.5 -34.5t75.5 -12q22 0 48 10t51 25t46.5 32.5t35.5 33.5q17 26 29.5 49.5t20 47.5t11 50t3.5 57q0 28 -1.5 55.5t-1.5 56.5v12l92 92q0 3 3 6q2 2 9 10.5 t9 10.5q14 17 24 41t10 46q0 27 -11 40.5t-39 13.5q-15 0 -31.5 -6.5t-31.5 -16.5t-28.5 -21t-23.5 -20l-11 -10.5l-17 -15.5l-17 -15.5l-11 -10.5q-13 -23 -12.5 -48t0.5 -49v-38l34 -166v-13q-1 0 -2 -1.5t-1 -0.5q-1 1 -2 4t-1 5l-10 40q-5 22 -12.5 43l-14.5 42 t-13 42.5t-9 44.5v15q0 27 7 48t19 39t28 34.5l35 34.5q23 23 49 42.5t55 34.5v7q-9 0 -16.5 -4t-14.5 -9t-14 -9t-16 -4q-6 0 -14 4.5t-15.5 10.5l-14.5 11.5t-11 7.5q-35 20 -71.5 28.5t-76.5 8.5q-32 0 -68 -13.5t-66 -36.5t-50 -54t-20 -67q0 -32 14.5 -54.5t49.5 -22.5 q31 0 45.5 15t22.5 32.5l14.5 32.5t21.5 15q9 0 13 -5t7 -10.5t7.5 -10.5t14.5 -5q3 0 9 2t12 6t10 8.5t4 9.5v2q-3 5 -10.5 3.5t-11.5 -0.5q-8 2 -9.5 6t-3 8.5t-6.5 7.5t-19 3q-18 0 -28 -8t-16.5 -20t-11.5 -26t-12.5 -26t-19.5 -20t-33 -8q-29 0 -40.5 18t-11.5 44 q0 30 14 56t36 45.5t50 30.5t56 11q21 0 47 -9t49.5 -24t39 -36t15.5 -45q0 -11 -8.5 -22.5t-16.5 -19.5l-37 -37q-3 -3 -14 -13l-24 -21.5l-26 -22.5l-19 -16q-6 -6 -15.5 -10.5t-9.5 -15.5q12 0 21 10t20 10q6 0 6 -6q-3 -42 12 -77t34 -71v-6q0 -8 -8.5 -16.5 l-13.5 -13.5l-5 -7.5l-6.5 -9.5t-6 -9t-3.5 -5q-21 -34 -29 -74.5t-8 -79.5q0 -1 2 -12t5.5 -24t8 -23.5t10.5 -10.5h2q0 3 3 3v2v2q-1 1 -5 8.5t-4 9.5q-4 10 -7 25.5t-3 26.5q0 25 5 52t14.5 52.5t24 48.5t33.5 40h1q10 0 20.5 -18.5t18.5 -42t13 -45t5 -27.5 q0 -33 -14.5 -60.5t-38 -47t-53 -30.5t-59.5 -11q-26 0 -52 7t-47.5 21t-35 35.5t-13.5 50.5q0 13 4 27t12 25.5t19.5 19t26.5 7.5q8 0 14 -3t14 -3q6 0 9 3q29 27 43.5 57t14.5 71q0 12 -3 28t-10 29.5t-18 23t-27 9.5q-5 0 -9.5 -0.5t-6.5 -6.5q-1 -2 -1 -6v-4h29 q3 0 6.5 -5t6 -11.5t4 -12t1.5 -6.5q0 -24 -14 -41.5t-38 -17.5q-11 0 -16.5 4.5t-13.5 14.5h-2q-11 0 -13 -8.5t-7 -16.5q-23 -33 -40.5 -62.5t-17.5 -70.5zM265 -12q0 -4 3 -6q26 -17 47 -25.5t52 -8.5q8 0 20.5 -0.5t21.5 3.5q20 8 36.5 21t37.5 13q27 0 27 -25 q0 -13 -6 -23.5t-6 -24.5q0 -18 8.5 -24t25.5 -14h1h2q2 1 13.5 5t13.5 5h3q7 0 7 -8q0 -6 -2 -11.5t-2 -11.5h7q5 0 7 8.5t2 13.5q0 10 -7 14t-15 4t-14.5 -3t-14.5 -3q-10 0 -16.5 7t-6.5 16q0 14 6.5 25t6.5 25q0 30 -18.5 41.5t-45.5 11.5q-17 0 -30.5 -9.5t-28.5 -15.5 q-18 -8 -33 -12t-33 -4h-15t-14 4q-8 3 -17 10.5t-17 7.5q-6 0 -6 -6zM391 211v7h3v-7h-3zM440 466v4q0 28 2.5 54.5t10 50.5t22 44t38.5 37q11 7 15 8t15 1q14 0 26 -6t12 -23q0 -27 -13.5 -56t-33.5 -55.5t-43 -49t-42 -37.5h-2h-1q-1 0 -2 1.5l-1 1.5q-1 3 -2 12.5 t-1 12.5z" />
<glyph unicode="&#xd4;" horiz-adv-x="626" d="M244 961q0 -51 14.5 -91t52.5 -73q5 -3 16.5 -8t11.5 -11q0 -9 -6.5 -15.5t-6.5 -15.5q0 -8 5 -8q1 0 6 5.5t10 12l9.5 12.5t6.5 7q9 7 24.5 17t29.5 21.5t24.5 24t10.5 26.5q0 6 -6 6h-3q-8 -9 -15.5 -15.5t-19.5 -6.5h-2q-4 1 -12 3.5t-9 2.5q-21 9 -35.5 23.5t-24 33 t-13.5 39t-4 41.5q0 7 0.5 26.5t3.5 39.5t10 36t19 16q10 0 17 -5t17 -5q13 0 29 8.5t29.5 21t23 27.5t9.5 28q-14 0 -27.5 -6.5t-35.5 -7.5q-3 2 -7.5 4.5t-4.5 7.5t4 10.5l8.5 11.5t8.5 12.5t4 13.5v1q-3 3 -7 3h-1q-5 0 -8.5 -8t-5.5 -10q-1 -2 -7 -9t-8 -10l-47 -51 t-43.5 -56t-32 -61.5t-12.5 -68.5zM473.5 901.5q-0.5 -34.5 9.5 -67.5l4 -11.5t7 -16.5t8 -14.5t8 -6.5q1 0 6.5 7.5l12.5 17.5l13.5 18.5t10.5 11.5t10.5 4.5l12.5 3t10.5 5t4.5 9.5q0 4 -5.5 9t-13.5 10t-16 11t-12 12v65v61t3 61q1 5 9.5 15.5t19 21.5t21.5 19.5t18 8.5 q8 0 15.5 -8.5t14.5 -13.5q2 -1 9.5 -6t9.5 -6l18 -18q3 -4 3 -9v-10q0 -19 -11 -34.5t-27 -28t-34 -23l-32 -18.5q-3 -4 -3 -9v-3q8 -3 14 -4l11.5 -2t11.5 -2.5t15 -7.5q15 -10 22.5 -29.5t13.5 -42t15 -45.5t29 -39v-3q-7 -6 -19 -18.5t-12 -24.5q0 -6 5 -6q2 0 5.5 4 t6.5 8.5l6 9t5 6.5q12 9 31.5 21.5t39 27.5t33.5 31.5t14 34.5q-6 0 -10 -4t-7 -9.5t-7 -9.5t-10 -4q-15 0 -22 3t-11 8t-6.5 11.5t-8.5 14.5q-1 2 -7.5 8t-7.5 8t-1.5 12t-1.5 12q-7 26 -21.5 46t-39.5 31v3l5.5 6t9.5 9q12 10 25.5 19.5t25 20t19 23.5t7.5 31 q0 17 -5 26.5t-13 15.5t-18.5 10.5t-22.5 12.5q-4 3 -11 10t-7 9v6l31 37v10q-6 0 -11 -4.5t-9.5 -10.5l-9 -11.5t-7.5 -8.5t-9 -8l-12 -10l-10.5 -8.5t-5.5 -4.5q-4 -3 -17.5 -14l-29 -23.5l-27.5 -22.5t-13 -10h-2l-1.5 1t-1.5 2v29v29q0 3 0.5 14.5l1 24l1 24t0.5 14.5 q1 27 1 63t8 67.5t28 53.5t60 22q2 0 10 -0.5t10 -0.5q7 -2 14.5 -6.5t12.5 -11.5q-3 -6 -10.5 -8t-15.5 -5t-14 -11t-6 -27q0 -20 11.5 -34t32.5 -14q24 0 37.5 16t13.5 40q0 20 -10 35.5t-25 26t-33.5 16t-36.5 5.5q-22 0 -47 -7.5t-46.5 -21.5t-37 -34t-18.5 -45l-9 -73 q0 -1 -0.5 -15t-1 -37t-0.5 -51t-0.5 -57t-0.5 -56v-45v-81q0 -34 -0.5 -68.5zM17 265q0 -59 24 -108.5t64.5 -85.5t93 -56.5t108.5 -20.5h20q3 0 11.5 1.5l17.5 3t17.5 2.5t11.5 2q11 8 26 12t26 10q7 4 21.5 15l29 23l25.5 21t12 9l1 -1q4 -5 3.5 -12.5t-0.5 -12.5 q0 -35 -13 -65.5t-33 -59.5q0 -3 -3 -3q-1 0 -4.5 -1t-4.5 -2q-5 -4 -9 -12t-9 -13q-35 -26 -72.5 -39t-81.5 -13q-52 0 -98 21t-67 71l-9 22t-4 24q0 11 2 22t2 22q-9 0 -11 -6t-2 -13q0 -32 4.5 -53t14 -37.5t25.5 -31t39 -32.5q4 -2 13.5 -5l21 -6.5t21.5 -6l14 -3.5 q2 0 17 -0.5t23 -0.5q5 0 20 0.5t20 0.5q73 13 121 60t69 115q1 1 2 6t1 6q6 13 9.5 24.5t3.5 26.5q0 11 -3.5 21.5t-3.5 21.5v0q0 1 1 1q0 2 4 8t5 8l7 14l11 22l11.5 22.5l7.5 14.5t5 12t4 10q6 22 7.5 45.5t1.5 46.5q0 83 -35.5 149.5t-105.5 110.5q-15 10 -27.5 15 t-24 10.5t-22.5 13.5t-24 23q-2 6 -6.5 15.5t-12.5 9.5l-1 -0.5t-2 -0.5q-11 -29 -30 -49t-37 -43q-2 -3 -7 -8.5l-10.5 -12l-10.5 -12t-6 -7.5q-19 -21 -37 -38t-31.5 -34.5t-21.5 -39.5t-8 -54q0 -24 11 -44t27.5 -35.5t36.5 -28.5t38 -23q23 -9 46 -12.5t46 -9.5l15.5 -4 l24.5 -6.5l24 -6.5t16 -4q3 -2 9.5 -5.5t13.5 -8l13.5 -8.5t9.5 -6q4 -3 10.5 -9t12.5 -13t10 -14.5t4 -13.5t-3 -11t-6 -9q-14 -19 -27.5 -32t-28.5 -21t-33 -11.5t-41 -3.5q-61 0 -113 21.5t-90.5 59t-60 89.5t-21.5 112q0 64 19 118t55 106q4 6 18.5 18l25 20.5t12.5 9.5 q0 5 -7 5l-3 -1q-2 -1 -10.5 -4t-10.5 -5q-81 -63 -128 -141t-47 -183zM164 391q0 9 4 26.5t11.5 35.5t17 31t21.5 13q2 0 8 -6.5l13.5 -14.5l14.5 -15.5t11 -9.5q33 -18 71 -27t73 -21t64.5 -33t46.5 -63q2 -4 6 -16.5t6 -17.5q1 -2 2 -6.5t1 -5.5v-74q0 -5 -6 -9 q-14 13 -26 27.5t-26 27.5q-22 21 -47 33.5t-52 20t-55.5 11t-57.5 6.5q-2 1 -9 3t-9 3q-17 4 -32 10t-26 15.5t-18 23t-7 32.5zM182 126h10q10 6 22.5 12.5t24.5 6.5q20 0 36 -9.5t35 -9.5q26 0 34.5 14.5t6.5 37.5l3 3h2q9 0 16.5 -7.5t17.5 -7.5q11 0 11 13v7q0 5 -5 5 t-4.5 -6.5t-6.5 -6.5q-9 0 -16.5 6.5t-16.5 6.5h-6q-4 0 -4 -4v-27q0 -4 -6.5 -5t-8.5 -1q-15 0 -29 4.5t-30 4.5q-5 0 -19 -2.5t-29 -7t-26.5 -11.5t-11.5 -16zM286 566q0 7 6.5 12t13.5 5q6 0 16 -10.5t17 -13.5q30 -17 60.5 -28.5t59.5 -30.5q14 -9 24.5 -21.5 l21.5 -24.5q32 -37 51.5 -82t19.5 -96h-4l-2 10t-4 15q-11 49 -33.5 96.5t-64.5 78.5q-15 11 -45.5 18t-61 15.5t-53 21.5t-22.5 35z" />
<glyph unicode="&#xdb;" horiz-adv-x="725" d="M88 979q0 -51 14.5 -91t52.5 -73q5 -3 16.5 -8t11.5 -11q0 -9 -6.5 -15.5t-6.5 -15.5q0 -8 5 -8q1 0 6 5.5t10 12l9.5 12.5t6.5 7q9 7 24.5 17t29.5 21.5t24.5 24t10.5 26.5q0 6 -6 6h-3q-8 -9 -15.5 -15.5t-19.5 -6.5h-2q-4 1 -12 3.5t-9 2.5q-21 9 -35.5 23.5t-24 33 t-13.5 39t-4 41.5q0 7 0.5 26.5t3.5 39.5t10 36t19 16q10 0 17 -5t17 -5q13 0 29 8.5t29.5 21t23 27.5t9.5 28q-14 0 -27.5 -6.5t-35.5 -7.5q-3 2 -7.5 4.5t-4.5 7.5t4 10.5l8.5 11.5t8.5 12.5t4 13.5v1q-3 3 -7 3h-1q-5 0 -8.5 -8t-5.5 -10q-1 -2 -7 -9t-8 -10l-47 -51 t-43.5 -56t-32 -61.5t-12.5 -68.5zM317.5 919.5q-0.5 -34.5 9.5 -67.5l4 -11.5t7 -16.5t8 -14.5t8 -6.5q1 0 6.5 7.5l12.5 17.5l13.5 18.5t10.5 11.5t10.5 4.5l12.5 3t10.5 5t4.5 9.5q0 4 -5.5 9t-13.5 10t-16 11t-12 12v65v61t3 61q1 5 9.5 15.5t19 21.5t21.5 19.5t18 8.5 q8 0 15.5 -8.5t14.5 -13.5q2 -1 9.5 -6t9.5 -6l18 -18q3 -4 3 -9v-10q0 -19 -11 -34.5t-27 -28t-34 -23l-32 -18.5q-3 -4 -3 -9v-3q8 -3 14 -4l11.5 -2t11.5 -2.5t15 -7.5q15 -10 22.5 -29.5t13.5 -42t15 -45.5t29 -39v-3q-7 -6 -19 -18.5t-12 -24.5q0 -6 5 -6q2 0 5.5 4 t6.5 8.5l6 9t5 6.5q12 9 31.5 21.5t39 27.5t33.5 31.5t14 34.5q-6 0 -10 -4t-7 -9.5t-7 -9.5t-10 -4q-15 0 -22 3t-11 8t-6.5 11.5t-8.5 14.5q-1 2 -7.5 8t-7.5 8t-1.5 12t-1.5 12q-7 26 -21.5 46t-39.5 31v3l5.5 6t9.5 9q12 10 25.5 19.5t25 20t19 23.5t7.5 31 q0 17 -5 26.5t-13 15.5t-18.5 10.5t-22.5 12.5q-4 3 -11 10t-7 9v6l31 37v10q-6 0 -11 -4.5t-9.5 -10.5l-9 -11.5t-7.5 -8.5t-9 -8l-12 -10l-10.5 -8.5t-5.5 -4.5q-4 -3 -17.5 -14l-29 -23.5l-27.5 -22.5t-13 -10h-2l-1.5 1t-1.5 2v29v29q0 3 0.5 14.5l1 24l1 24t0.5 14.5 q1 27 1 63t8 67.5t28 53.5t60 22q2 0 10 -0.5t10 -0.5q7 -2 14.5 -6.5t12.5 -11.5q-3 -6 -10.5 -8t-15.5 -5t-14 -11t-6 -27q0 -20 11.5 -34t32.5 -14q24 0 37.5 16t13.5 40q0 20 -10 35.5t-25 26t-33.5 16t-36.5 5.5q-22 0 -47 -7.5t-46.5 -21.5t-37 -34t-18.5 -45l-9 -73 q0 -1 -0.5 -15t-1 -37t-0.5 -51t-0.5 -57t-0.5 -56v-45v-81q0 -34 -0.5 -68.5zM18 517q0 -38 17 -71t50 -53q12 -7 28 -11t30.5 -9.5t24.5 -15.5t10 -29q0 -13 -8.5 -23t-22.5 -10q-9 0 -15 5.5t-11 11.5t-11 11.5t-15 5.5q-14 0 -24 -7.5t-10 -22.5q0 -5 1.5 -10t1.5 -10 q0 -6 -6.5 -8.5t-6.5 -8.5t3.5 -6.5t8.5 -0.5q9 0 11.5 5t2.5 13q0 7 -2 13.5t-2 13.5t5 7h1q1 0 3.5 -1t2.5 -2q2 -1 12.5 -9t12.5 -9q5 -2 13.5 -2.5t14.5 -0.5q23 0 39 17t16 40q0 28 -12 42.5t-30 23.5t-39.5 15.5t-39.5 18t-30 32t-12 56.5q0 28 11 48.5t29 34.5 t41.5 21t49.5 7h1q4 -2 16 -5t15 -5q32 -11 53.5 -33.5t35 -52t19.5 -62t6 -62.5q0 -6 -0.5 -18t-0.5 -14q0 -5 -1 -12.5t-2 -14t-2 -11.5l-1 -5h-5q0 3 0.5 11.5t1 18t0.5 17.5v11q0 4 -1.5 15.5l-3 23.5t-2.5 23t-2 15l-15 28.5t-14.5 25.5t-16.5 23.5t-22 23.5 q-3 3 -11 9.5t-13 6.5t-7 -2.5t-5 -7.5q-1 -1 -4.5 -5.5t-7 -9.5l-6.5 -9.5t-4 -5.5q-6 -8 -19 -21.5l-27 -28l-24.5 -26t-10.5 -14.5q10 0 17.5 5.5t14 12t13.5 12t17 5.5q24 0 41.5 -24.5t28 -56.5t15.5 -64.5t5 -48.5q0 -19 -4 -45t-11.5 -52.5t-19.5 -50t-27 -36.5 q-1 0 -4.5 -2.5t-4.5 -3.5q-17 -14 -36.5 -26.5t-37 -27.5t-29 -33.5t-11.5 -45.5q0 -31 14.5 -41t42.5 -10q27 0 51.5 11t47 28t41.5 37.5t34 40.5v3q0 6 -6 6h-4l-34 -36.5t-38 -37t-43.5 -29t-49.5 -11.5q-17 0 -30 6.5t-13 26.5q0 25 14 45t35 33.5t45.5 20.5t46.5 7 q29 0 53.5 -9.5t47 -23t44.5 -30t45 -29.5q34 -20 66 -30.5t71 -10.5q36 0 70 10.5t63 33.5q16 12 28 26.5t12 35.5q0 8 -5 8t-10 -10.5t-10 -13.5q-18 -14 -39.5 -18t-43.5 -4q-34 0 -62 9.5t-57 27.5q-1 1 -3.5 3t-2.5 3v2q0 4 13 18.5l29.5 31.5l32 31.5t20.5 17.5 q3 2 13.5 9.5t13.5 9.5v9q-7 0 -13 -1.5t-13 -1.5q-16 0 -20 8t-6 22v15q0 12 -0.5 24.5t-0.5 23.5v16v19q0 13 0.5 25.5t0.5 21.5v12q1 10 3 36t4.5 55.5t4.5 55.5t4 37q3 16 10 35t18 35t26.5 26.5t35.5 10.5q23 0 40 -16t17 -39q0 -5 -0.5 -13t-2.5 -12q-4 -5 -12 -13 t-10 -8h-30v28q0 6 -8.5 9t-13.5 3q-17 0 -25.5 -12.5t-8.5 -28.5q0 -20 13 -32.5t33 -12.5q19 0 33.5 7.5t24 20.5t14.5 29.5t5 33.5q0 34 -22 54.5t-55 20.5q-24 0 -40 -7.5t-36 -23.5q-41 -33 -61.5 -75.5t-29 -90.5t-9 -98.5t-1.5 -97.5q0 -7 -1 -34t-2.5 -58t-2.5 -58 t-1 -34q0 -4 0.5 -18t0.5 -18q-1 0 -2 -0.5t-2 -0.5q-1 1 -4.5 3.5t-4.5 2.5q-17 10 -38.5 20.5t-41.5 16.5q-38 11 -74.5 12.5t-75.5 1.5v5q77 71 120 169t43 203q0 42 -11.5 77t-34.5 60.5t-56.5 40t-76.5 14.5q-39 0 -71.5 -14t-56 -38t-36.5 -57t-13 -71zM266 -131 q0 -12 4.5 -17t14.5 -14l18 -4.5t19 -4.5q4 -1 12.5 -4.5t8.5 -9.5t-8 -8.5t-8 -12.5q0 -8 2.5 -10t11.5 -2q0 1 -0.5 3.5t-0.5 3.5t-1.5 3.5l-1.5 2.5q0 4 8 6.5t8 13.5q0 18 -12 22.5t-27 6.5t-27 6.5t-12 22.5q0 15 15 19.5t27 4.5q24 0 46.5 -7t45 -15t46.5 -15t50 -7 q46 0 90.5 13t79.5 39t57 64.5t22 89.5v31q-4 17 -10.5 35t-20.5 29q-31 26 -68.5 48.5t-79.5 22.5h-5q-5 -1 -13.5 -2t-8.5 -2v-9q31 -1 66 -10.5t64 -28t48 -46t19 -64.5q0 -43 -20 -78.5t-51.5 -60.5t-71.5 -38.5t-79 -13.5q-46 0 -88 15q-15 5 -27 11t-23.5 11 t-24.5 8.5t-29 3.5h-25q-40 -13 -40 -52zM343 126q9 0 17.5 7t16.5 12q2 1 12 7.5t12 7.5q3 1 9.5 5t13.5 7.5l13.5 7t9.5 5.5q3 3 3 6v1v2q0 3 -3 3h-1q-6 0 -19 -6.5t-27 -14.5t-26 -16.5l-16 -11.5l-15 -15v-7z" />
<glyph unicode="&#xdf;" horiz-adv-x="337" d="M35 13v-137v-93l3 -43l1 -1.5t2 -1.5h2h1q1 1 3.5 3t2.5 3q5 55 6.5 110t-0.5 111l11.5 16.5t9 12t10 10.5t15.5 13q4 3 9.5 4l11 2t9.5 3.5t4 8.5q0 11 -12 26t-15 29q0 6 -0.5 22.5t-1.5 34.5t-1.5 34.5t-0.5 22.5v15q0 16 5.5 35.5t16 37t25.5 29.5t33 12 q23 0 40.5 -20.5t17.5 -42.5q0 -11 -0.5 -22.5t-5.5 -22.5q-7 -14 -21.5 -26l-29 -24t-25.5 -23.5t-11 -23.5q21 0 37 -2t26.5 -9.5t15.5 -21t5 -37.5q0 -31 -13 -59t-28.5 -56.5t-28.5 -58t-13 -63.5q0 -37 19.5 -60t56.5 -23q29 0 49 18.5t20 47.5q0 19 -10 30.5t-30 11.5 t-32 -12.5t-12 -32.5q0 -9 4 -14.5t8.5 -9.5t8.5 -7t4 -6q0 -6 -7.5 -7t-10.5 -1q-22 0 -38.5 19t-16.5 41q0 45 24 80t52.5 66t52.5 63t24 71q0 38 -19.5 62.5t-57.5 32.5v7l11 10.5l17 16.5l16.5 17l10.5 11q15 15 20 29.5t5 35.5q0 29 -19 50.5t-45 31.5q-1 0 -1 3 q0 6 4.5 11.5l9.5 11.5t9.5 13t4.5 16h-12q-8 -18 -20 -32t-26 -25t-29.5 -21.5t-28.5 -22.5q-3 -2 -9.5 -8l-13.5 -13l-13.5 -13t-9.5 -9q-1 -1 -4.5 -6.5t-6.5 -5.5h-1q-1 2 -2 10.5t-2 10.5v4v5q0 4 0.5 20.5t1.5 35t1.5 35t0.5 20.5q0 26 -0.5 47t3 40t13 36t29.5 36 q8 7 10 8.5t10 1.5q10 0 20.5 -7.5t18.5 -11.5q9 -5 19 -8.5t19 -8.5t14.5 -12t5.5 -20v-13q-4 -5 -16 -10.5t-12 -11.5q0 -5 8 -5q13 0 25.5 7t22.5 17.5t15.5 23.5t5.5 25q0 30 -16 45.5t-34.5 25l-34.5 17.5t-16 23q0 12 6 17.5t13.5 9.5t14 7t6.5 9t-6 6q-11 0 -25 -5 t-27 -14t-22 -20t-9 -23v-45q0 -1 -3 -4q-24 -12 -41 -22t-36 -30q-27 -30 -38.5 -65.5t-14.5 -74t-1 -78t2 -76.5v-27t-0.5 -47t-1 -57.5t-1 -57.5t-0.5 -47v-27z" />
<glyph unicode="&#xe2;" horiz-adv-x="365" d="M122 725q0 -51 14.5 -91t52.5 -73q5 -3 16.5 -8t11.5 -11q0 -9 -6.5 -15.5t-6.5 -15.5q0 -8 5 -8q1 0 6 5.5t10 12l9.5 12.5t6.5 7q9 7 24.5 17t29.5 21.5t24.5 24t10.5 26.5q0 6 -6 6h-3q-8 -9 -15.5 -15.5t-19.5 -6.5h-2q-4 1 -12 3.5t-9 2.5q-21 9 -35.5 23.5t-24 33 t-13.5 39t-4 41.5q0 7 0.5 26.5t3.5 39.5t10 36t19 16q10 0 17 -5t17 -5q13 0 29 8.5t29.5 21t23 27.5t9.5 28q-14 0 -27.5 -6.5t-35.5 -7.5q-3 2 -7.5 4.5t-4.5 7.5t4 10.5l8.5 11.5t8.5 12.5t4 13.5v1q-3 3 -7 3h-1q-5 0 -8.5 -8t-5.5 -10q-1 -2 -7 -9t-8 -10l-47 -51 t-43.5 -56t-32 -61.5t-12.5 -68.5zM351.5 665.5q-0.5 -34.5 9.5 -67.5l4 -11.5t7 -16.5t8 -14.5t8 -6.5q1 0 6.5 7.5l12.5 17.5l13.5 18.5t10.5 11.5t10.5 4.5l12.5 3t10.5 5t4.5 9.5q0 4 -5.5 9t-13.5 10t-16 11t-12 12v65v61t3 61q1 5 9.5 15.5t19 21.5t21.5 19.5t18 8.5 q8 0 15.5 -8.5t14.5 -13.5q2 -1 9.5 -6t9.5 -6l18 -18q3 -4 3 -9v-10q0 -19 -11 -34.5t-27 -28t-34 -23l-32 -18.5q-3 -4 -3 -9v-3q8 -3 14 -4l11.5 -2t11.5 -2.5t15 -7.5q15 -10 22.5 -29.5t13.5 -42t15 -45.5t29 -39v-3q-7 -6 -19 -18.5t-12 -24.5q0 -6 5 -6q2 0 5.5 4 t6.5 8.5l6 9t5 6.5q12 9 31.5 21.5t39 27.5t33.5 31.5t14 34.5q-6 0 -10 -4t-7 -9.5t-7 -9.5t-10 -4q-15 0 -22 3t-11 8t-6.5 11.5t-8.5 14.5q-1 2 -7.5 8t-7.5 8t-1.5 12t-1.5 12q-7 26 -21.5 46t-39.5 31v3l5.5 6t9.5 9q12 10 25.5 19.5t25 20t19 23.5t7.5 31 q0 17 -5 26.5t-13 15.5t-18.5 10.5t-22.5 12.5q-4 3 -11 10t-7 9v6l31 37v10q-6 0 -11 -4.5t-9.5 -10.5l-9 -11.5t-7.5 -8.5t-9 -8l-12 -10l-10.5 -8.5t-5.5 -4.5q-4 -3 -17.5 -14l-29 -23.5l-27.5 -22.5t-13 -10h-2l-1.5 1t-1.5 2v29v29q0 3 0.5 14.5l1 24l1 24t0.5 14.5 q1 27 1 63t8 67.5t28 53.5t60 22q2 0 10 -0.5t10 -0.5q7 -2 14.5 -6.5t12.5 -11.5q-3 -6 -10.5 -8t-15.5 -5t-14 -11t-6 -27q0 -20 11.5 -34t32.5 -14q24 0 37.5 16t13.5 40q0 20 -10 35.5t-25 26t-33.5 16t-36.5 5.5q-22 0 -47 -7.5t-46.5 -21.5t-37 -34t-18.5 -45l-9 -73 q0 -1 -0.5 -15t-1 -37t-0.5 -51t-0.5 -57t-0.5 -56v-45v-81q0 -34 -0.5 -68.5zM17 141q0 -83 58 -144v-6q-2 -2 -5.5 -6t-7 -9t-7 -9.5t-4.5 -5.5l-6.5 -9t-3.5 -10q0 -6 7 -6q10 0 11.5 7t6.5 14q13 18 30.5 32t36 27t36 27t32.5 31h3q5 0 6 -3q8 -26 16.5 -43.5 t29.5 -36.5v-1q0 -5 -4 -10t-8.5 -10t-8.5 -10.5t-4 -11.5t5 -6q7 0 11 10t9 15q14 12 27.5 22l27.5 21l14.5 11.5l15.5 12.5t7 6v6l-6 2.5t-9 3.5l-20 9t-20.5 12.5t-15.5 16.5t-6 21v168q0 12 6 18t13.5 10t14 8t6.5 13v6q-24 2 -47.5 13t-41.5 27l-11 11t-7 8v3 q12 11 20 20.5t8 25.5h-7q-35 -39 -70.5 -70.5l-73.5 -67.5q-4 -8 -10 -14t-11 -14q-17 -32 -30 -65.5t-13 -69.5zM90 181q0 20 3 41.5t9.5 41.5t17 38t26.5 32h1q6 0 15.5 -4t18.5 -10t16 -14t7 -15v-183q0 -5 -5 -13t-12.5 -15.5t-15.5 -13t-14 -5.5q-21 0 -34 13.5 t-20.5 32t-10 39t-2.5 35.5z" />
<glyph unicode="&#xea;" horiz-adv-x="258" d="M95 725q0 -51 14.5 -91t52.5 -73q5 -3 16.5 -8t11.5 -11q0 -9 -6.5 -15.5t-6.5 -15.5q0 -8 5 -8q1 0 6 5.5t10 12l9.5 12.5t6.5 7q9 7 24.5 17t29.5 21.5t24.5 24t10.5 26.5q0 6 -6 6h-3q-8 -9 -15.5 -15.5t-19.5 -6.5h-2q-4 1 -12 3.5t-9 2.5q-21 9 -35.5 23.5t-24 33 t-13.5 39t-4 41.5q0 7 0.5 26.5t3.5 39.5t10 36t19 16q10 0 17 -5t17 -5q13 0 29 8.5t29.5 21t23 27.5t9.5 28q-14 0 -27.5 -6.5t-35.5 -7.5q-3 2 -7.5 4.5t-4.5 7.5t4 10.5l8.5 11.5t8.5 12.5t4 13.5v1q-3 3 -7 3h-1q-5 0 -8.5 -8t-5.5 -10q-1 -2 -7 -9t-8 -10l-47 -51 t-43.5 -56t-32 -61.5t-12.5 -68.5zM324.5 665.5q-0.5 -34.5 9.5 -67.5l4 -11.5t7 -16.5t8 -14.5t8 -6.5q1 0 6.5 7.5l12.5 17.5l13.5 18.5t10.5 11.5t10.5 4.5l12.5 3t10.5 5t4.5 9.5q0 4 -5.5 9t-13.5 10t-16 11t-12 12v65v61t3 61q1 5 9.5 15.5t19 21.5t21.5 19.5t18 8.5 q8 0 15.5 -8.5t14.5 -13.5q2 -1 9.5 -6t9.5 -6l18 -18q3 -4 3 -9v-10q0 -19 -11 -34.5t-27 -28t-34 -23l-32 -18.5q-3 -4 -3 -9v-3q8 -3 14 -4l11.5 -2t11.5 -2.5t15 -7.5q15 -10 22.5 -29.5t13.5 -42t15 -45.5t29 -39v-3q-7 -6 -19 -18.5t-12 -24.5q0 -6 5 -6q2 0 5.5 4 t6.5 8.5l6 9t5 6.5q12 9 31.5 21.5t39 27.5t33.5 31.5t14 34.5q-6 0 -10 -4t-7 -9.5t-7 -9.5t-10 -4q-15 0 -22 3t-11 8t-6.5 11.5t-8.5 14.5q-1 2 -7.5 8t-7.5 8t-1.5 12t-1.5 12q-7 26 -21.5 46t-39.5 31v3l5.5 6t9.5 9q12 10 25.5 19.5t25 20t19 23.5t7.5 31 q0 17 -5 26.5t-13 15.5t-18.5 10.5t-22.5 12.5q-4 3 -11 10t-7 9v6l31 37v10q-6 0 -11 -4.5t-9.5 -10.5l-9 -11.5t-7.5 -8.5t-9 -8l-12 -10l-10.5 -8.5t-5.5 -4.5q-4 -3 -17.5 -14l-29 -23.5l-27.5 -22.5t-13 -10h-2l-1.5 1t-1.5 2v29v29q0 3 0.5 14.5l1 24l1 24t0.5 14.5 q1 27 1 63t8 67.5t28 53.5t60 22q2 0 10 -0.5t10 -0.5q7 -2 14.5 -6.5t12.5 -11.5q-3 -6 -10.5 -8t-15.5 -5t-14 -11t-6 -27q0 -20 11.5 -34t32.5 -14q24 0 37.5 16t13.5 40q0 20 -10 35.5t-25 26t-33.5 16t-36.5 5.5q-22 0 -47 -7.5t-46.5 -21.5t-37 -34t-18.5 -45l-9 -73 q0 -1 -0.5 -15t-1 -37t-0.5 -51t-0.5 -57t-0.5 -56v-45v-81q0 -34 -0.5 -68.5zM17 139q0 -33 10.5 -65t36.5 -55q9 -8 20.5 -16t19.5 -18q-9 -8 -18.5 -19.5t-9.5 -24.5q0 -4 0.5 -7.5t5.5 -3.5h3q1 11 6 18t12.5 12t15 9.5t12.5 12.5l55 34q4 5 12.5 10.5t16.5 11.5 t14 12.5t6 15.5q0 8 -6 8t-10.5 -3.5t-8.5 -8t-8.5 -8t-11.5 -3.5q-2 0 -7 0.5t-6 0.5q-48 12 -68.5 47t-20.5 81q0 16 0.5 34.5t4 36t11 33.5t21.5 28h4q10 0 19 -6t15.5 -14.5t10 -18.5t3.5 -19q0 -21 -11.5 -36t-26 -28.5t-26 -28.5t-11.5 -34q8 0 11.5 1.5t5.5 9.5 q16 15 37 31.5t40 35.5t32 40t13 47q0 22 -10 37.5t-22 25.5t-22 16t-10 11v3q1 2 4.5 9.5t4.5 8.5v2v1q0 2 -1.5 4t-1.5 3h-2q-3 0 -7 -4.5t-7.5 -10.5l-7 -11.5t-4.5 -7.5l-50.5 -52.5t-44 -55t-31.5 -61t-12 -71.5z" />
<glyph unicode="&#xee;" horiz-adv-x="246" d="M13 903q0 -51 14.5 -91t52.5 -73q5 -3 16.5 -8t11.5 -11q0 -9 -6.5 -15.5t-6.5 -15.5q0 -8 5 -8q1 0 6 5.5t10 12l9.5 12.5t6.5 7q9 7 24.5 17t29.5 21.5t24.5 24t10.5 26.5q0 6 -6 6h-3q-8 -9 -15.5 -15.5t-19.5 -6.5h-2q-4 1 -12 3.5t-9 2.5q-21 9 -35.5 23.5t-24 33 t-13.5 39t-4 41.5q0 7 0.5 26.5t3.5 39.5t10 36t19 16q10 0 17 -5t17 -5q13 0 29 8.5t29.5 21t23 27.5t9.5 28q-14 0 -27.5 -6.5t-35.5 -7.5q-3 2 -7.5 4.5t-4.5 7.5t4 10.5l8.5 11.5t8.5 12.5t4 13.5v1q-3 3 -7 3h-1q-5 0 -8.5 -8t-5.5 -10q-1 -2 -7 -9t-8 -10l-47 -51 t-43.5 -56t-32 -61.5t-12.5 -68.5zM242.5 843.5q-0.5 -34.5 9.5 -67.5l4 -11.5t7 -16.5t8 -14.5t8 -6.5q1 0 6.5 7.5l12.5 17.5l13.5 18.5t10.5 11.5t10.5 4.5l12.5 3t10.5 5t4.5 9.5q0 4 -5.5 9t-13.5 10t-16 11t-12 12v65v61t3 61q1 5 9.5 15.5t19 21.5t21.5 19.5t18 8.5 q8 0 15.5 -8.5t14.5 -13.5q2 -1 9.5 -6t9.5 -6l18 -18q3 -4 3 -9v-10q0 -19 -11 -34.5t-27 -28t-34 -23l-32 -18.5q-3 -4 -3 -9v-3q8 -3 14 -4l11.5 -2t11.5 -2.5t15 -7.5q15 -10 22.5 -29.5t13.5 -42t15 -45.5t29 -39v-3q-7 -6 -19 -18.5t-12 -24.5q0 -6 5 -6q2 0 5.5 4 t6.5 8.5l6 9t5 6.5q12 9 31.5 21.5t39 27.5t33.5 31.5t14 34.5q-6 0 -10 -4t-7 -9.5t-7 -9.5t-10 -4q-15 0 -22 3t-11 8t-6.5 11.5t-8.5 14.5q-1 2 -7.5 8t-7.5 8t-1.5 12t-1.5 12q-7 26 -21.5 46t-39.5 31v3l5.5 6t9.5 9q12 10 25.5 19.5t25 20t19 23.5t7.5 31 q0 17 -5 26.5t-13 15.5t-18.5 10.5t-22.5 12.5q-4 3 -11 10t-7 9v6l31 37v10q-6 0 -11 -4.5t-9.5 -10.5l-9 -11.5t-7.5 -8.5t-9 -8l-12 -10l-10.5 -8.5t-5.5 -4.5q-4 -3 -17.5 -14l-29 -23.5l-27.5 -22.5t-13 -10h-2l-1.5 1t-1.5 2v29v29q0 3 0.5 14.5l1 24l1 24t0.5 14.5 q1 27 1 63t8 67.5t28 53.5t60 22q2 0 10 -0.5t10 -0.5q7 -2 14.5 -6.5t12.5 -11.5q-3 -6 -10.5 -8t-15.5 -5t-14 -11t-6 -27q0 -20 11.5 -34t32.5 -14q24 0 37.5 16t13.5 40q0 20 -10 35.5t-25 26t-33.5 16t-36.5 5.5q-22 0 -47 -7.5t-46.5 -21.5t-37 -34t-18.5 -45l-9 -73 q0 -1 -0.5 -15t-1 -37t-0.5 -51t-0.5 -57t-0.5 -56v-45v-81q0 -34 -0.5 -68.5zM17.5 308.5q0.5 -2.5 0.5 -10.5q10 0 17 5.5t16 5.5q10 0 17 -5t10.5 -13t5.5 -17t2 -17v-13t0.5 -19.5t0.5 -19.5v-12q0 -33 -2 -65.5t-2 -64.5q0 -47 37 -81v-3q-2 -3 -10.5 -13t-8.5 -18 q0 -6 5 -6h2q29 28 62.5 50.5t59.5 53.5v3q0 6 -5 6h-1q-2 -1 -5 -3t-4 -3q-2 0 -8.5 -0.5t-8.5 -0.5q-21 0 -32 10t-16 31v32v32q0 8 0.5 28t1.5 42.5t1.5 42.5t0.5 28q1 5 5.5 7.5t9.5 4.5t8.5 4.5t3.5 8.5t-9 10.5t-20.5 9.5t-20.5 11t-9 15q0 5 3.5 9.5t8 9t8 9 t3.5 10.5q0 3 -0.5 6.5t-4.5 3.5q-7 0 -8.5 -4t-5.5 -8q-2 -2 -6 -6.5t-8.5 -9t-8.5 -8t-5 -4.5q-2 -1 -8 -5.5l-13 -9.5l-13.5 -10t-7.5 -6q-1 0 -5 -3.5l-9.5 -8t-11 -8.5t-8.5 -7q-5 -4 -4.5 -6.5zM77 573q0 -23 14 -33.5t37 -10.5h4q18 12 21.5 23t3.5 29v15 q-7 10 -15.5 17.5t-21.5 7.5q-22 0 -32.5 -13.5t-10.5 -34.5z" />
<glyph unicode="&#xf4;" horiz-adv-x="310" d="M115 725q0 -51 14.5 -91t52.5 -73q5 -3 16.5 -8t11.5 -11q0 -9 -6.5 -15.5t-6.5 -15.5q0 -8 5 -8q1 0 6 5.5t10 12l9.5 12.5t6.5 7q9 7 24.5 17t29.5 21.5t24.5 24t10.5 26.5q0 6 -6 6h-3q-8 -9 -15.5 -15.5t-19.5 -6.5h-2q-4 1 -12 3.5t-9 2.5q-21 9 -35.5 23.5t-24 33 t-13.5 39t-4 41.5q0 7 0.5 26.5t3.5 39.5t10 36t19 16q10 0 17 -5t17 -5q13 0 29 8.5t29.5 21t23 27.5t9.5 28q-14 0 -27.5 -6.5t-35.5 -7.5q-3 2 -7.5 4.5t-4.5 7.5t4 10.5l8.5 11.5t8.5 12.5t4 13.5v1q-3 3 -7 3h-1q-5 0 -8.5 -8t-5.5 -10q-1 -2 -7 -9t-8 -10l-47 -51 t-43.5 -56t-32 -61.5t-12.5 -68.5zM344.5 665.5q-0.5 -34.5 9.5 -67.5l4 -11.5t7 -16.5t8 -14.5t8 -6.5q1 0 6.5 7.5l12.5 17.5l13.5 18.5t10.5 11.5t10.5 4.5l12.5 3t10.5 5t4.5 9.5q0 4 -5.5 9t-13.5 10t-16 11t-12 12v65v61t3 61q1 5 9.5 15.5t19 21.5t21.5 19.5t18 8.5 q8 0 15.5 -8.5t14.5 -13.5q2 -1 9.5 -6t9.5 -6l18 -18q3 -4 3 -9v-10q0 -19 -11 -34.5t-27 -28t-34 -23l-32 -18.5q-3 -4 -3 -9v-3q8 -3 14 -4l11.5 -2t11.5 -2.5t15 -7.5q15 -10 22.5 -29.5t13.5 -42t15 -45.5t29 -39v-3q-7 -6 -19 -18.5t-12 -24.5q0 -6 5 -6q2 0 5.5 4 t6.5 8.5l6 9t5 6.5q12 9 31.5 21.5t39 27.5t33.5 31.5t14 34.5q-6 0 -10 -4t-7 -9.5t-7 -9.5t-10 -4q-15 0 -22 3t-11 8t-6.5 11.5t-8.5 14.5q-1 2 -7.5 8t-7.5 8t-1.5 12t-1.5 12q-7 26 -21.5 46t-39.5 31v3l5.5 6t9.5 9q12 10 25.5 19.5t25 20t19 23.5t7.5 31 q0 17 -5 26.5t-13 15.5t-18.5 10.5t-22.5 12.5q-4 3 -11 10t-7 9v6l31 37v10q-6 0 -11 -4.5t-9.5 -10.5l-9 -11.5t-7.5 -8.5t-9 -8l-12 -10l-10.5 -8.5t-5.5 -4.5q-4 -3 -17.5 -14l-29 -23.5l-27.5 -22.5t-13 -10h-2l-1.5 1t-1.5 2v29v29q0 3 0.5 14.5l1 24l1 24t0.5 14.5 q1 27 1 63t8 67.5t28 53.5t60 22q2 0 10 -0.5t10 -0.5q7 -2 14.5 -6.5t12.5 -11.5q-3 -6 -10.5 -8t-15.5 -5t-14 -11t-6 -27q0 -20 11.5 -34t32.5 -14q24 0 37.5 16t13.5 40q0 20 -10 35.5t-25 26t-33.5 16t-36.5 5.5q-22 0 -47 -7.5t-46.5 -21.5t-37 -34t-18.5 -45l-9 -73 q0 -1 -0.5 -15t-1 -37t-0.5 -51t-0.5 -57t-0.5 -56v-45v-81q0 -34 -0.5 -68.5zM17 133q0 -30 8.5 -54.5t25.5 -49.5q3 -5 13 -13.5t20.5 -16.5l19 -14t8.5 -7v-1q-5 -7 -12 -14.5t-7 -16.5q0 -6 7 -6q3 0 6 3q23 31 51.5 56.5t55.5 53.5q1 2 3 5t3 5q1 1 5.5 6t10 10.5 t10 10.5t5.5 6q23 31 33 62t10 69v17q0 3 -2 12l-4 18.5t-3.5 18.5t-2.5 12q-11 16 -19 32t-24 29q-8 7 -19 13t-18 15q5 6 15 20t10 24q0 2 -1 2l-1 1.5t-2 1.5h-1q-5 0 -9.5 -9.5t-7.5 -12.5l-12.5 -12.5t-12.5 -11.5l-62.5 -57t-51.5 -57.5t-35 -66.5t-13 -83zM90 168v17 v20t1 14q0 1 0.5 6t1.5 11.5l2 13t2 9.5q1 6 4.5 18t8.5 23.5t11.5 20.5t14.5 9q18 0 33.5 -11.5t27.5 -29t20.5 -36.5t11.5 -34v-34q0 -14 -1.5 -36t-7 -42.5t-16.5 -35.5t-31 -15q-18 0 -32 9.5t-24 23.5t-16.5 31t-9.5 32q-1 4 -1 16z" />
<glyph unicode="&#xfb;" horiz-adv-x="429" d="M233 725q0 -51 14.5 -91t52.5 -73q5 -3 16.5 -8t11.5 -11q0 -9 -6.5 -15.5t-6.5 -15.5q0 -8 5 -8q1 0 6 5.5t10 12l9.5 12.5t6.5 7q9 7 24.5 17t29.5 21.5t24.5 24t10.5 26.5q0 6 -6 6h-3q-8 -9 -15.5 -15.5t-19.5 -6.5h-2q-4 1 -12 3.5t-9 2.5q-21 9 -35.5 23.5t-24 33 t-13.5 39t-4 41.5q0 7 0.5 26.5t3.5 39.5t10 36t19 16q10 0 17 -5t17 -5q13 0 29 8.5t29.5 21t23 27.5t9.5 28q-14 0 -27.5 -6.5t-35.5 -7.5q-3 2 -7.5 4.5t-4.5 7.5t4 10.5l8.5 11.5t8.5 12.5t4 13.5v1q-3 3 -7 3h-1q-5 0 -8.5 -8t-5.5 -10q-1 -2 -7 -9t-8 -10l-47 -51 t-43.5 -56t-32 -61.5t-12.5 -68.5zM462.5 665.5q-0.5 -34.5 9.5 -67.5l4 -11.5t7 -16.5t8 -14.5t8 -6.5q1 0 6.5 7.5l12.5 17.5l13.5 18.5t10.5 11.5t10.5 4.5l12.5 3t10.5 5t4.5 9.5q0 4 -5.5 9t-13.5 10t-16 11t-12 12v65v61t3 61q1 5 9.5 15.5t19 21.5t21.5 19.5t18 8.5 q8 0 15.5 -8.5t14.5 -13.5q2 -1 9.5 -6t9.5 -6l18 -18q3 -4 3 -9v-10q0 -19 -11 -34.5t-27 -28t-34 -23l-32 -18.5q-3 -4 -3 -9v-3q8 -3 14 -4l11.5 -2t11.5 -2.5t15 -7.5q15 -10 22.5 -29.5t13.5 -42t15 -45.5t29 -39v-3q-7 -6 -19 -18.5t-12 -24.5q0 -6 5 -6q2 0 5.5 4 t6.5 8.5l6 9t5 6.5q12 9 31.5 21.5t39 27.5t33.5 31.5t14 34.5q-6 0 -10 -4t-7 -9.5t-7 -9.5t-10 -4q-15 0 -22 3t-11 8t-6.5 11.5t-8.5 14.5q-1 2 -7.5 8t-7.5 8t-1.5 12t-1.5 12q-7 26 -21.5 46t-39.5 31v3l5.5 6t9.5 9q12 10 25.5 19.5t25 20t19 23.5t7.5 31 q0 17 -5 26.5t-13 15.5t-18.5 10.5t-22.5 12.5q-4 3 -11 10t-7 9v6l31 37v10q-6 0 -11 -4.5t-9.5 -10.5l-9 -11.5t-7.5 -8.5t-9 -8l-12 -10l-10.5 -8.5t-5.5 -4.5q-4 -3 -17.5 -14l-29 -23.5l-27.5 -22.5t-13 -10h-2l-1.5 1t-1.5 2v29v29q0 3 0.5 14.5l1 24l1 24t0.5 14.5 q1 27 1 63t8 67.5t28 53.5t60 22q2 0 10 -0.5t10 -0.5q7 -2 14.5 -6.5t12.5 -11.5q-3 -6 -10.5 -8t-15.5 -5t-14 -11t-6 -27q0 -20 11.5 -34t32.5 -14q24 0 37.5 16t13.5 40q0 20 -10 35.5t-25 26t-33.5 16t-36.5 5.5q-22 0 -47 -7.5t-46.5 -21.5t-37 -34t-18.5 -45l-9 -73 q0 -1 -0.5 -15t-1 -37t-0.5 -51t-0.5 -57t-0.5 -56v-45v-81q0 -34 -0.5 -68.5zM17 295q8 0 13 5.5t9 12t9.5 12t14.5 5.5q11 0 17 -8.5t9 -19.5t4 -22.5t1 -17.5v-48v-32q0 -14 -0.5 -27.5t-1.5 -28t-2 -32.5q-2 -9 -10 -16t-17.5 -13t-17 -12t-7.5 -12q30 0 48 -10t41 -29 q7 -5 7 -12q0 -1 -0.5 -2l-0.5 -1l-18 -25v-12h9q12 19 27 34.5t31.5 29.5l33 28.5t31.5 30.5q1 5 6.5 10.5t8.5 7.5l3 -3q2 -33 9.5 -54.5t33.5 -43.5v-5q0 -11 -6.5 -19t-6.5 -20q2 0 15.5 14l29.5 31.5l29 33t15 17.5q4 4 14.5 16.5t13.5 17.5v3q0 6 -6 6q-5 0 -8.5 -4 t-6.5 -8.5t-7 -8.5t-10 -4q-10 0 -17.5 5.5t-13 13.5t-8.5 17.5t-3 18.5q0 39 2 84.5l4 87.5l1.5 3.5t2.5 5.5q2 6 10 12.5t16.5 12t15.5 10.5t7 9v2q-3 3 -4 3h-1q-6 0 -11.5 -1.5t-12.5 -1.5t-16 3.5t-16.5 9.5t-13 13.5t-5.5 15.5v4l18 27v11q-11 0 -15.5 -11.5 t-11.5 -17.5l-44.5 -35t-41.5 -38q-7 -8 -9 -12t-2 -15q6 0 9 3t5.5 6t5.5 6t9 3q2 0 5 -0.5t5 -0.5q5 -4 12.5 -11.5t11.5 -15.5v-60v-51t-4.5 -41.5t-16 -37.5t-34.5 -37h-9q-15 0 -22 5.5t-18 19.5q-1 1 -2 4t-1 5v24q0 46 1.5 91.5t1.5 91.5v44q-2 5 -8 12.5t-12.5 14.5 l-11.5 12l-5 5q0 6 2 10t2 11q-6 0 -10 -4l-37.5 -26t-32.5 -29l-13.5 -16l-14 -16.5t-6.5 -7.5v-16z" />
<glyph unicode="&#x152;" horiz-adv-x="1322" d="M643 11q0 -16 7 -28t18.5 -20.5t26 -13t28.5 -4.5q21 0 39.5 4t36 9.5t35 12t36.5 11.5l55 37h5h7q2 -1 11 -5t11 -4q3 -2 10.5 -4.5l15.5 -5l14.5 -4.5t8.5 -2q21 -5 33.5 -5.5t32.5 -0.5q54 0 100 18.5t88 52.5h3q5 0 7.5 -6.5t4 -15.5t1.5 -18v-11q0 -26 -13.5 -46.5 t-34 -34.5t-45.5 -21t-47 -7h-21t-20 3q-27 15 -60 30.5t-65 15.5q-17 0 -29 -12t-12 -29q0 -5 2.5 -8t6 -5.5t6 -6t2.5 -9.5h-48l-3 -3q1 -3 1 -11q0 -9 -1 -11q0 -1 -4 -4.5t-5 -4.5l-1 -5q13 0 16 4t3 9v10t7 7q5 -1 20 -1t20 1q12 0 12 12q0 5 -3.5 8.5t-7.5 6t-7.5 5 t-3.5 6.5t5.5 6.5t12 3.5t12.5 1h10q19 0 36 -5t33.5 -10.5t34 -10.5t37.5 -5q30 0 59.5 8t53.5 24.5t38.5 42t14.5 59.5q0 14 -6.5 27.5t-6.5 27.5v1q1 2 5 8t5 7q1 3 4.5 10l4.5 9q5 14 7 27.5t2 28.5q0 42 -24 71t-66 29q-25 0 -47.5 -12t-22.5 -40v-7q0 -4 1 -5 q3 -7 5.5 -8.5t7.5 -1.5q6 0 13.5 2t7.5 10t-6.5 13t-6.5 11q0 18 16 23.5t31 5.5q20 0 35 -8t25.5 -21.5t16 -30.5t5.5 -36q0 -5 -2.5 -17.5t-6.5 -25.5t-9.5 -23t-12.5 -10h-3q-2 1 -9 6t-9 6q-3 1 -8.5 4t-12 6l-12 5.5t-7.5 3.5q-17 6 -35.5 7.5t-36.5 1.5 q-35 0 -66.5 -10t-63.5 -24q-2 0 -5 -1t-5 -2h-1h-2l-2.5 1.5t-3.5 1.5q-5 2 -16.5 6l-24.5 8.5t-25 8t-17 5.5q-3 1 -3 6v3q27 28 45.5 54t29.5 54t14.5 60t2.5 71q11 19 24 36t40 17q7 0 16.5 -3t18.5 -8.5t15 -13t6 -16.5v-6q-20 -26 -36.5 -54.5t-16.5 -61.5 q0 -12 2 -20t16 -8q5 0 11 1.5t6 9.5q0 6 -8 16t-8 22q0 32 22 58t48.5 49.5t48.5 46.5t22 50q0 9 -2 15t-11 6q0 -6 2 -11t2 -10q0 -8 -5 -22t-15 -14q-8 0 -15 6.5t-14 9.5q-23 10 -51 10q-26 0 -47 -10t-40 -27q-3 -3 -8.5 -10t-10.5 -14.5t-10 -13.5t-6 -6 q-2 0 -6.5 8.5t-9.5 20l-9.5 22t-6.5 14.5l-8 15.5l-8 15.5v3q0 5 3 6q25 2 46 12.5t36 27t23.5 38.5t8.5 46q0 23 -11.5 40t-22.5 35q1 3 6 3q35 0 60.5 -22t25.5 -59q0 -11 -6.5 -20l-14 -18.5t-13.5 -20t-6 -23.5q4 0 9 6t10 14l10 16t8 11q12 13 32 26.5l39.5 28 t33.5 31.5t14 39q0 6 -4.5 14t-11.5 8h-2q-1 -1 -3.5 -2l-2.5 -1l-0.5 -0.5t-0.5 -1.5l1 -1q1 -2 6 -6.5t6 -6.5v-2q0 -6 -5 -18.5t-13 -12.5q-5 0 -7.5 4.5t-5.5 7.5q-2 3 -9 10t-9 8q-14 11 -31.5 16.5t-34.5 5.5q-24 0 -48.5 -5.5t-47.5 -13.5h-3q-8 0 -13.5 5t-11.5 8 q-17 6 -35.5 10.5t-36.5 4.5q-49 0 -90.5 -17.5t-71.5 -48.5t-47 -73t-17 -91t15.5 -96.5t49.5 -84.5q18 -20 39 -37t39 -36.5t30 -42t12 -52.5q0 -8 -0.5 -19t-9.5 -15q-24 0 -60 -5t-69.5 -18.5t-57.5 -36t-24 -55.5zM655 10q0 22 10 36t25 21.5t33.5 10t36.5 2.5t38.5 -2 t40.5 -7.5t37.5 -15t30.5 -24.5q-12 -16 -34 -29.5t-47 -23.5t-50 -15.5t-44 -5.5q-13 0 -26.5 2.5t-25 9t-18.5 16.5t-7 25zM695 524q0 67 32 110t88 77q39 16 85 16q6 0 19 -1t26.5 -3t25 -6.5t15.5 -11.5q-8 -10 -19.5 -16.5t-20.5 -13.5l-7.5 -7.5l-11 -11t-10.5 -11 t-7 -7.5q-3 -3 -3 -6q-16 -26 -27 -52t-16 -56q-3 0 -3 -3h-2q-3 0 -11.5 3t-8.5 8q0 22 10 45t21 42v5q-11 0 -18 -11.5t-13.5 -25t-14 -24.5t-17.5 -11q-2 0 -6.5 3t-9 7.5t-8.5 8t-5 5.5q-14 16 -21 25.5t-16 30.5h-2q0 -27 19 -48t38 -38l3 -3v-2v-1q-10 -11 -28 -25 t-27 -27v-2v-1q15 -2 15 -7t4 -18q6 -24 13.5 -42t22.5 -38q2 -3 11.5 -13.5l20.5 -23l20.5 -23t12.5 -13.5q13 -16 22 -34.5l17 -36.5q1 -2 1 -11v-12q0 -20 -4 -39t-21 -33l-3 3q5 35 -6.5 66t-32 60t-45 57.5t-46.5 59t-36.5 64.5t-14.5 73zM722 671h4q1 12 4 29t10 32.5 t18 26.5t29 11q4 0 7 -2.5t6 -5.5t7 -5.5t11 -2.5q9 0 11.5 5t3.5 10.5t3 10.5t9 5t12.5 -1.5t12.5 -1.5h12q8 6 10.5 17.5t2.5 21.5q-10 0 -14 -4t-6.5 -9.5t-5.5 -9.5t-9 -4q-5 0 -9.5 1.5t-9.5 1.5q-8 0 -10 -5t-2.5 -10.5t-2 -10.5t-8.5 -5q-8 0 -12.5 6.5t-13.5 6.5 q-22 0 -35.5 -10.5t-21 -26.5t-10.5 -35t-3 -36zM839 500q0 6 1.5 9.5t7.5 3.5q5 0 8 -1t5 -6q7 -17 7 -35t8 -35q9 -20 19.5 -39t20 -38t15.5 -39t6 -42v-23q0 -5 -1 -13.5t-2 -8.5h-3q-2 29 -8 63t-23 60l-22 34.5t-19.5 33.5t-14 35.5t-5.5 40.5zM912 172q0 5 4 6v-3 q0 -5 -3 -6zM917 184q0 3 2 3t2 -3t-2 -3t-2 3zM918 571q0 36 12 61.5t44 45.5l12.5 7.5t14.5 4.5q8 0 16 -9.5t14 -22t10 -24.5t4 -17q0 -21 -8.5 -40.5t-23 -34t-34 -23t-40.5 -8.5q-2 0 -6 0.5t-5 0.5l-3 3q-1 1 -3.5 13t-2.5 18q0 1 -0.5 10.5t-0.5 14.5zM1017 77v1 q0 4 12 9.5t27.5 10.5t30 9t19.5 4h29q16 0 29 -1.5t25.5 -5t25.5 -8l29 -10.5q3 -1 7.5 -3.5t4.5 -7.5v-1q-22 -27 -52 -36.5t-63 -9.5q-32 0 -66 14t-58 35zM17 265q0 -59 24 -108.5t64.5 -85.5t93 -56.5t108.5 -20.5h20q3 0 11.5 1.5l17.5 3t17.5 2.5t11.5 2q11 8 26 12 t26 10q7 4 21.5 15l29 23l25.5 21t12 9l1 -1q4 -5 3.5 -12.5t-0.5 -12.5q0 -35 -13 -65.5t-33 -59.5q0 -3 -3 -3q-1 0 -4.5 -1t-4.5 -2q-5 -4 -9 -12t-9 -13q-35 -26 -72.5 -39t-81.5 -13q-52 0 -98 21t-67 71l-9 22t-4 24q0 11 2 22t2 22q-9 0 -11 -6t-2 -13q0 -32 4.5 -53 t14 -37.5t25.5 -31t39 -32.5q4 -2 13.5 -5l21 -6.5t21.5 -6l14 -3.5q2 0 17 -0.5t23 -0.5q5 0 20 0.5t20 0.5q73 13 121 60t69 115q1 1 2 6t1 6q6 13 9.5 24.5t3.5 26.5q0 11 -3.5 21.5t-3.5 21.5v0q0 1 1 1q0 2 4 8t5 8l7 14l11 22l11.5 22.5l7.5 14.5t5 12t4 10 q6 22 7.5 45.5t1.5 46.5q0 83 -35.5 149.5t-105.5 110.5q-15 10 -27.5 15t-24 10.5t-22.5 13.5t-24 23q-2 6 -6.5 15.5t-12.5 9.5l-1 -0.5t-2 -0.5q-11 -29 -30 -49t-37 -43q-2 -3 -7 -8.5l-10.5 -12l-10.5 -12t-6 -7.5q-19 -21 -37 -38t-31.5 -34.5t-21.5 -39.5t-8 -54 q0 -24 11 -44t27.5 -35.5t36.5 -28.5t38 -23q23 -9 46 -12.5t46 -9.5l15.5 -4l24.5 -6.5l24 -6.5t16 -4q3 -2 9.5 -5.5t13.5 -8l13.5 -8.5t9.5 -6q4 -3 10.5 -9t12.5 -13t10 -14.5t4 -13.5t-3 -11t-6 -9q-14 -19 -27.5 -32t-28.5 -21t-33 -11.5t-41 -3.5q-61 0 -113 21.5 t-90.5 59t-60 89.5t-21.5 112q0 64 19 118t55 106q4 6 18.5 18l25 20.5t12.5 9.5q0 5 -7 5l-3 -1q-2 -1 -10.5 -4t-10.5 -5q-81 -63 -128 -141t-47 -183zM164 391q0 9 4 26.5t11.5 35.5t17 31t21.5 13q2 0 8 -6.5l13.5 -14.5l14.5 -15.5t11 -9.5q33 -18 71 -27t73 -21 t64.5 -33t46.5 -63q2 -4 6 -16.5t6 -17.5q1 -2 2 -6.5t1 -5.5v-74q0 -5 -6 -9q-14 13 -26 27.5t-26 27.5q-22 21 -47 33.5t-52 20t-55.5 11t-57.5 6.5q-2 1 -9 3t-9 3q-17 4 -32 10t-26 15.5t-18 23t-7 32.5zM182 126h10q10 6 22.5 12.5t24.5 6.5q20 0 36 -9.5t35 -9.5 q26 0 34.5 14.5t6.5 37.5l3 3h2q9 0 16.5 -7.5t17.5 -7.5q11 0 11 13v7q0 5 -5 5t-4.5 -6.5t-6.5 -6.5q-9 0 -16.5 6.5t-16.5 6.5h-6q-4 0 -4 -4v-27q0 -4 -6.5 -5t-8.5 -1q-15 0 -29 4.5t-30 4.5q-5 0 -19 -2.5t-29 -7t-26.5 -11.5t-11.5 -16zM286 566q0 7 6.5 12t13.5 5 q6 0 16 -10.5t17 -13.5q30 -17 60.5 -28.5t59.5 -30.5q14 -9 24.5 -21.5l21.5 -24.5q32 -37 51.5 -82t19.5 -96h-4l-2 10t-4 15q-11 49 -33.5 96.5t-64.5 78.5q-15 11 -45.5 18t-61 15.5t-53 21.5t-22.5 35z" />
<glyph unicode="&#x153;" horiz-adv-x="568" d="M327 139q0 -33 10.5 -65t36.5 -55q9 -8 20.5 -16t19.5 -18q-9 -8 -18.5 -19.5t-9.5 -24.5q0 -4 0.5 -7.5t5.5 -3.5h3q1 11 6 18t12.5 12t15 9.5t12.5 12.5l55 34q4 5 12.5 10.5t16.5 11.5t14 12.5t6 15.5q0 8 -6 8t-10.5 -3.5t-8.5 -8t-8.5 -8t-11.5 -3.5q-2 0 -7 0.5 t-6 0.5q-48 12 -68.5 47t-20.5 81q0 16 0.5 34.5t4 36t11 33.5t21.5 28h4q10 0 19 -6t15.5 -14.5t10 -18.5t3.5 -19q0 -21 -11.5 -36t-26 -28.5t-26 -28.5t-11.5 -34q8 0 11.5 1.5t5.5 9.5q16 15 37 31.5t40 35.5t32 40t13 47q0 22 -10 37.5t-22 25.5t-22 16t-10 11v3 q1 2 4.5 9.5t4.5 8.5v2v1q0 2 -1.5 4t-1.5 3h-2q-3 0 -7 -4.5t-7.5 -10.5l-7 -11.5t-4.5 -7.5l-50.5 -52.5t-44 -55t-31.5 -61t-12 -71.5zM17 133q0 -30 8.5 -54.5t25.5 -49.5q3 -5 13 -13.5t20.5 -16.5l19 -14t8.5 -7v-1q-5 -7 -12 -14.5t-7 -16.5q0 -6 7 -6q3 0 6 3 q23 31 51.5 56.5t55.5 53.5q1 2 3 5t3 5q1 1 5.5 6t10 10.5t10 10.5t5.5 6q23 31 33 62t10 69v17q0 3 -2 12l-4 18.5t-3.5 18.5t-2.5 12q-11 16 -19 32t-24 29q-8 7 -19 13t-18 15q5 6 15 20t10 24q0 2 -1 2l-1 1.5t-2 1.5h-1q-5 0 -9.5 -9.5t-7.5 -12.5l-12.5 -12.5 t-12.5 -11.5l-62.5 -57t-51.5 -57.5t-35 -66.5t-13 -83zM90 168v17v20t1 14q0 1 0.5 6t1.5 11.5l2 13t2 9.5q1 6 4.5 18t8.5 23.5t11.5 20.5t14.5 9q18 0 33.5 -11.5t27.5 -29t20.5 -36.5t11.5 -34v-34q0 -14 -1.5 -36t-7 -42.5t-16.5 -35.5t-31 -15q-18 0 -32 9.5t-24 23.5 t-16.5 31t-9.5 32q-1 4 -1 16z" />
<glyph unicode="&#x2c6;" horiz-adv-x="615" d="M17 189q0 -51 14.5 -91t52.5 -73q5 -3 16.5 -8t11.5 -11q0 -9 -6.5 -15.5t-6.5 -15.5q0 -8 5 -8q1 0 6 5.5t10 12l9.5 12.5t6.5 7q9 7 24.5 17t29.5 21.5t24.5 24t10.5 26.5q0 6 -6 6h-3q-8 -9 -15.5 -15.5t-19.5 -6.5h-2q-4 1 -12 3.5t-9 2.5q-21 9 -35.5 23.5t-24 33 t-13.5 39t-4 41.5q0 7 0.5 26.5t3.5 39.5t10 36t19 16q10 0 17 -5t17 -5q13 0 29 8.5t29.5 21t23 27.5t9.5 28q-14 0 -27.5 -6.5t-35.5 -7.5q-3 2 -7.5 4.5t-4.5 7.5t4 10.5l8.5 11.5t8.5 12.5t4 13.5v1q-3 3 -7 3h-1q-5 0 -8.5 -8t-5.5 -10q-1 -2 -7 -9t-8 -10l-47 -51 t-43.5 -56t-32 -61.5t-12.5 -68.5zM246.5 129.5q-0.5 -34.5 9.5 -67.5l4 -11.5t7 -16.5t8 -14.5t8 -6.5q1 0 6.5 7.5l12.5 17.5l13.5 18.5t10.5 11.5t10.5 4.5l12.5 3t10.5 5t4.5 9.5q0 4 -5.5 9t-13.5 10t-16 11t-12 12v65v61t3 61q1 5 9.5 15.5t19 21.5t21.5 19.5t18 8.5 q8 0 15.5 -8.5t14.5 -13.5q2 -1 9.5 -6t9.5 -6l18 -18q3 -4 3 -9v-10q0 -19 -11 -34.5t-27 -28t-34 -23l-32 -18.5q-3 -4 -3 -9v-3q8 -3 14 -4l11.5 -2t11.5 -2.5t15 -7.5q15 -10 22.5 -29.5t13.5 -42t15 -45.5t29 -39v-3q-7 -6 -19 -18.5t-12 -24.5q0 -6 5 -6q2 0 5.5 4 t6.5 8.5l6 9t5 6.5q12 9 31.5 21.5t39 27.5t33.5 31.5t14 34.5q-6 0 -10 -4t-7 -9.5t-7 -9.5t-10 -4q-15 0 -22 3t-11 8t-6.5 11.5t-8.5 14.5q-1 2 -7.5 8t-7.5 8t-1.5 12t-1.5 12q-7 26 -21.5 46t-39.5 31v3l5.5 6t9.5 9q12 10 25.5 19.5t25 20t19 23.5t7.5 31 q0 17 -5 26.5t-13 15.5t-18.5 10.5t-22.5 12.5q-4 3 -11 10t-7 9v6l31 37v10q-6 0 -11 -4.5t-9.5 -10.5l-9 -11.5t-7.5 -8.5t-9 -8l-12 -10l-10.5 -8.5t-5.5 -4.5q-4 -3 -17.5 -14l-29 -23.5l-27.5 -22.5t-13 -10h-2l-1.5 1t-1.5 2v29v29q0 3 0.5 14.5l1 24l1 24t0.5 14.5 q1 27 1 63t8 67.5t28 53.5t60 22q2 0 10 -0.5t10 -0.5q7 -2 14.5 -6.5t12.5 -11.5q-3 -6 -10.5 -8t-15.5 -5t-14 -11t-6 -27q0 -20 11.5 -34t32.5 -14q24 0 37.5 16t13.5 40q0 20 -10 35.5t-25 26t-33.5 16t-36.5 5.5q-22 0 -47 -7.5t-46.5 -21.5t-37 -34t-18.5 -45l-9 -73 q0 -1 -0.5 -15t-1 -37t-0.5 -51t-0.5 -57t-0.5 -56v-45v-81q0 -34 -0.5 -68.5z" />
<glyph unicode="&#x2000;" horiz-adv-x="817" />
<glyph unicode="&#x2001;" horiz-adv-x="1635" />
<glyph unicode="&#x2002;" horiz-adv-x="817" />
<glyph unicode="&#x2003;" horiz-adv-x="1635" />
<glyph unicode="&#x2004;" horiz-adv-x="545" />
<glyph unicode="&#x2005;" horiz-adv-x="408" />
<glyph unicode="&#x2006;" horiz-adv-x="272" />
<glyph unicode="&#x2007;" horiz-adv-x="272" />
<glyph unicode="&#x2008;" horiz-adv-x="204" />
<glyph unicode="&#x2009;" horiz-adv-x="327" />
<glyph unicode="&#x200a;" horiz-adv-x="90" />
<glyph unicode="&#x2010;" d="M18 217q24 12 52 12h162q10 -5 25.5 -7.5t32 -4t32.5 -1.5t27 1q5 -4 12.5 -5t13.5 -1q4 0 6 5.5t3.5 13t2 14.5t2.5 10q4 6 10 7.5t6 11.5q-20 0 -44.5 -4t-42.5 -6l-6 -3h-46q-8 -1 -19 -1.5t-18 -4.5h-55q-9 5 -22 4.5t-24 1.5l-38.5 9t-37.5 12l-0.5 0.5t-1.5 0.5 l-1 -1q-8 -9 -6.5 -13t0.5 -14q-1 -6 -5 -9.5t-8.5 -7t-8 -7.5t-3.5 -10v-3z" />
<glyph unicode="&#x2011;" d="M18 217q24 12 52 12h162q10 -5 25.5 -7.5t32 -4t32.5 -1.5t27 1q5 -4 12.5 -5t13.5 -1q4 0 6 5.5t3.5 13t2 14.5t2.5 10q4 6 10 7.5t6 11.5q-20 0 -44.5 -4t-42.5 -6l-6 -3h-46q-8 -1 -19 -1.5t-18 -4.5h-55q-9 5 -22 4.5t-24 1.5l-38.5 9t-37.5 12l-0.5 0.5t-1.5 0.5 l-1 -1q-8 -9 -6.5 -13t0.5 -14q-1 -6 -5 -9.5t-8.5 -7t-8 -7.5t-3.5 -10v-3z" />
<glyph unicode="&#x2012;" d="M18 217q24 12 52 12h162q10 -5 25.5 -7.5t32 -4t32.5 -1.5t27 1q5 -4 12.5 -5t13.5 -1q4 0 6 5.5t3.5 13t2 14.5t2.5 10q4 6 10 7.5t6 11.5q-20 0 -44.5 -4t-42.5 -6l-6 -3h-46q-8 -1 -19 -1.5t-18 -4.5h-55q-9 5 -22 4.5t-24 1.5l-38.5 9t-37.5 12l-0.5 0.5t-1.5 0.5 l-1 -1q-8 -9 -6.5 -13t0.5 -14q-1 -6 -5 -9.5t-8.5 -7t-8 -7.5t-3.5 -10v-3z" />
<glyph unicode="&#x2013;" horiz-adv-x="500" d="M18 211v71h465v-71h-465z" />
<glyph unicode="&#x2014;" horiz-adv-x="1000" d="M18 211v71h965v-71h-965z" />
<glyph unicode="&#x2018;" horiz-adv-x="133" d="M17 629q0 -13 11 -35.5t27 -44.5t32.5 -38t28.5 -16q0 9 -5.5 16t-12 14t-12 14t-5.5 16q0 13 4.5 23t9.5 18t9.5 14.5t4.5 13.5q0 9 -5 20.5t-12.5 22.5t-16 19.5t-15.5 11.5h-2q-4 0 -11 -8.5t-13.5 -20t-11.5 -23t-5 -17.5z" />
<glyph unicode="&#x2019;" horiz-adv-x="133" d="M17 495q12 0 28.5 16t32.5 38t27 44.5t11 35.5q0 6 -5 18t-11.5 23t-13.5 19.5t-11 8.5q-7 0 -16 -9t-16.5 -21t-13 -24.5t-5.5 -19.5t4.5 -13.5t9.5 -14.5t9.5 -18t4.5 -23q0 -9 -5.5 -16t-12 -14t-12 -14t-5.5 -16z" />
<glyph unicode="&#x201c;" horiz-adv-x="252" d="M17 637q0 -12 2.5 -20t6.5 -14.5t9.5 -13.5t12.5 -17q0 -1 2.5 -7.5t3.5 -7.5q1 -2 9 -11t12 -13q3 -4 8.5 -9t10 -10t8.5 -8.5l4 -3.5h10q0 9 -5.5 16.5t-12 14t-12 13.5t-5.5 16q0 14 4.5 24t9.5 18t9.5 14.5t4.5 14.5q0 7 -6.5 19.5t-15 25t-17.5 21.5t-13 8 q-5 -1 -11.5 -10.5t-13 -21t-11 -22.5t-4.5 -16zM136 630q0 -20 8.5 -30.5t19.5 -27.5q3 -5 11 -17t17.5 -24.5t19 -22t17.5 -9.5h2l1.5 1t1.5 2v2q0 6 -5.5 12.5l-11.5 13.5t-11.5 14.5t-5.5 15.5q0 12 4.5 21.5t9.5 17.5l9.5 15t4.5 15q0 7 -5.5 19t-13.5 24t-16.5 20.5 t-15.5 8.5h-1l-6 -6l-23.5 -29t-10.5 -36z" />
<glyph unicode="&#x201d;" horiz-adv-x="253" d="M18 498q10 0 21 8.5t20.5 20.5t17 24.5l12.5 20.5q1 1 4 5l7 9l7 9t4 5q4 8 5 15t1 15q0 12 -5 25.5t-14 20.5q0 1 -2.5 3t-3.5 3t-6.5 10t-9.5 9q-8 0 -16.5 -8.5t-16.5 -20.5t-13 -24t-5 -19q0 -8 4.5 -15l9.5 -15t9.5 -17.5t4.5 -21.5q0 -9 -5.5 -16.5t-12 -14.5 t-12 -14.5t-5.5 -16.5zM137 502h10l52 55q2 12 8 20l12.5 16t11.5 18t5 26q0 5 -4.5 16t-10.5 22.5t-13.5 20t-13.5 8.5t-14.5 -8t-16.5 -19.5t-13.5 -23.5t-5.5 -20t4.5 -14.5t9.5 -14.5t9.5 -18t4.5 -24q0 -9 -5.5 -16t-12 -13.5t-12 -14t-5.5 -16.5z" />
<glyph unicode="&#x2026;" horiz-adv-x="384" d="M273 49q0 -26 16.5 -36t39.5 -10q19 0 28 16.5t9 31.5q0 21 -5.5 30.5t-28.5 16.5h-8q-20 0 -35.5 -13.5t-15.5 -35.5zM145 49q0 -26 16.5 -36t39.5 -10q19 0 28 16.5t9 31.5q0 21 -5.5 30.5t-28.5 16.5h-8q-20 0 -35.5 -13.5t-15.5 -35.5zM17 49q0 -26 16.5 -36 t39.5 -10q19 0 28 16.5t9 31.5q0 21 -5.5 30.5t-28.5 16.5h-8q-20 0 -35.5 -13.5t-15.5 -35.5z" />
<glyph unicode="&#x202f;" horiz-adv-x="327" />
<glyph unicode="&#x205f;" horiz-adv-x="408" />
<glyph unicode="&#x2122;" horiz-adv-x="1350" d="M600 304l1.5 -2.5t1.5 -3.5q1 -6 1 -14t1.5 -15t6 -12t14.5 -5q14 0 22 6t14.5 13.5t15.5 14t26 6.5q13 0 19 -9t6 -20q0 -18 -10 -32t-24 -25.5t-29.5 -22.5t-25.5 -23q-17 -19 -25.5 -45t-8.5 -51q0 -54 30 -97.5t75.5 -74.5t99.5 -47.5t102 -16.5v7q-43 4 -89.5 18.5 t-85.5 40t-64 63t-25 87.5q0 56 37 101q10 12 22 22t22 21t17 24t7 31q0 26 -14 45.5t-42 19.5q-14 0 -22.5 -6.5t-16 -14l-14.5 -14t-17 -6.5t-10 8q0 6 2 10.5t2 10.5t-3.5 10.5t-10.5 4.5q-2 0 -5 -0.5t-3 -4.5v-2zM600 467q0 -14 7 -23.5t17.5 -16t22.5 -9.5t23 -3h13 l16 5.5t18 6.5q7 3 18.5 14.5t23 25t20 27.5t8.5 22q0 3 -1.5 8t-6.5 5q-2 0 -7.5 -10.5t-14.5 -23.5t-21.5 -23.5t-28.5 -10.5q-17 0 -27 12t-10 29q0 40 25 67.5t55 47.5q11 8 20.5 13.5t23.5 5.5q22 0 32.5 -16t12.5 -36q0 -5 0.5 -15t1 -21.5t1 -21t0.5 -13.5v-18 t0.5 -37t0.5 -43v-34v-27q0 -18 -0.5 -39t-0.5 -40v-26q-1 -11 -2 -25.5t-4 -28.5t-8.5 -27t-15.5 -20q-4 0 -7 -3q0 -1 0.5 -6t-0.5 -6q0 -3 -19 -12.5t-41.5 -24.5t-41.5 -35.5t-19 -45.5q6 0 11.5 4.5t10.5 10t9 11.5t8 9q26 22 64 22q10 0 22.5 -2.5t24 -8t20.5 -14 t13 -19.5q0 -1 1 -8.5t2 -9.5q5 -10 12 -10q6 0 9 7l14 20l21.5 30.5l21.5 30.5l14 20l12 16t17 12h5q1 -14 6.5 -32.5t14.5 -35.5t22.5 -28.5t31.5 -11.5q9 0 18 8.5t17 20.5t15 24t13 18q5 6 14.5 16.5l19 21l17.5 19l10 10.5t9 8t9 8v6h-9l-55 -52q-1 -1 -6.5 -3t-8.5 -3 h-2q-21 0 -33 10t-18 25t-7.5 33t-1.5 34v20q20 29 43.5 53l48.5 49q11 11 25.5 23.5t29.5 18.5q1 0 4 -3q25 -45 32.5 -96t7.5 -102q0 -110 -52.5 -188t-147.5 -129q-27 -14 -58 -27t-63 -13q-5 0 -7.5 2t-6.5 2q-6 0 -6 -5v-2q1 -2 2 -7t6 -5h1q1 0 4.5 1.5t4.5 1.5 q2 1 7 2t6 1q77 13 146 54.5t121 102t82.5 135t30.5 153.5q0 47 -10 91.5t-26.5 87.5t-37 84.5l-40.5 82.5q-6 20 -10.5 44t-1.5 45q-3 3 -6 3h-1h-2q-3 0 -6 -3l-13.5 -17l-20 -26t-20.5 -26l-14 -17q-11 -13 -20 -27t-23 -25l-3 3q-2 38 -12 70.5t-31 64.5q-2 4 -6 4 q-2 0 -10 -12l-17.5 -26.5l-17.5 -27t-10 -14.5q-5 -6 -13.5 -14t-16 -16t-13.5 -13.5l-6 -5.5h-8v134q0 3 -2.5 3.5t-4.5 0.5h-3l-6.5 -6.5t-9 -9.5t-9 -9.5t-6.5 -5.5q-1 -1 -4.5 -3t-4.5 -3q-36 -18 -82 -35t-87.5 -40.5t-69.5 -57t-28 -85.5zM845 142v3q0 3 5.5 8.5 t13 11.5l14.5 12t10 11q23 42 27 87.5t4 93.5q0 36 -1.5 72t-1.5 72v3q0 5 1 20t2 20q2 2 6.5 7t10 10t10.5 10l7 7q8 7 10 9.5t9 2.5t12 -4.5t8.5 -11.5t5.5 -14t4 -13v-75v-75q0 -14 -1.5 -49t-3 -74t-3 -74t-1.5 -49q-3 -2 -12.5 -11.5l-12.5 -12.5t-11 -13t-14 -15h-1 q-2 0 -7 3l-12 7l-13 7.5t-9 4.5t-11 2t-17 2.5t-17 3t-11 1.5zM1072 286v21q0 59 2 118l4 119q5 16 21 31.5l28 26.5h2q1 0 10.5 -20l21 -45.5l22 -49.5t15.5 -32l9 -17.5t6 -13.5l0.5 -2t0.5 -4q0 -6 -5.5 -11.5t-12.5 -10.5t-14.5 -9.5t-11.5 -8.5l-95 -95zM18 501 q0 -23 14 -35t36 -12q26 0 50.5 10t46.5 24q16 14 32.5 31t29.5 36.5t21 41t8 44.5q14 0 24.5 0.5t25.5 -3.5q1 0 9 -3t18 -6t20.5 -6.5l16.5 -5.5l6 -3t4 -5v-2q-20 -21 -37.5 -37.5t-31.5 -34.5t-22 -40t-8 -55q0 -28 12 -51t26.5 -45t27 -44.5t14.5 -47.5q1 -3 0 -13.5 t-1 -14.5h-2q-9 31 -24.5 58.5l-30.5 54.5t-26 55.5t-11 62.5q0 38 15 67t40 55v10l-1 -0.5t-2 -0.5q-1 -1 -5.5 -4t-6.5 -5q-4 -3 -13 -11.5l-11 -10.5q-3 -3 -8.5 -8l-11.5 -11l-11 -11l-6 -6q-5 -5 -17 -18.5l-25 -29l-25 -29t-16 -18.5q-9 -15 -22 -29.5t-13 -33.5 q4 0 10.5 8l14 18t14 20t11.5 14q3 -2 6 -11.5t6 -20.5t5.5 -21.5t4.5 -14.5q6 -14 14.5 -30.5t19.5 -27.5q12 -14 28.5 -30.5t32 -35.5t26.5 -39.5t11 -41.5q0 -10 -2 -20t-11 -17q-4 0 -14 0.5t-21 0.5t-21 -0.5t-14 -0.5q-29 -2 -68.5 -10.5t-74.5 -25.5t-59.5 -43.5 t-24.5 -63.5q0 -23 11 -39t28.5 -26.5t38 -17t39.5 -10.5h38q27 0 58.5 6t63 18t58.5 29t45 39q1 1 3 6t3 6l3 1q1 0 2 -0.5l1 -0.5q3 -2 9 -10t13 -16.5t12 -15.5t6 -7q5 0 7 1.5t5 4.5l46 46q1 1 5 4.5t9 7.5t10 7.5t7 5.5q4 3 11 6.5t13.5 7.5t11 9t4.5 12 q-11 0 -19.5 -5.5t-18.5 -5.5q-11 0 -26 10t-25 15l-11 5.5t-14 6.5t-12 6t-6 3q-2 1 -12.5 4l-24 7l-27.5 8t-22 6q-1 0 -9.5 1t-8.5 6v2q22 20 42 45.5t31 52.5q1 2 5 12.5l8.5 22.5l8 22l3.5 10q10 -6 16 -16.5t9.5 -23.5t4.5 -25.5t1 -22.5v-3q-1 -6 -2 -15l-2 -18 t-1.5 -15.5t-0.5 -7.5t-2 -6t-4.5 -10.5t-4.5 -10.5t-2 -6q0 -2 -0.5 -6.5t-0.5 -6.5q8 0 14 14t10 32t6 35t2 22q0 23 -8 50t-23 47q-3 4 -9.5 10.5t-8.5 13.5q-5 14 -8 27t-11 25q-9 17 -20.5 35.5t-22 37.5t-17.5 39t-7 41q0 10 4.5 24t12.5 26.5t18 21t22 8.5h4 q25 -14 49.5 -37.5t42.5 -42.5h3q8 0 17 10t14 15q3 2 14 11.5l24 20.5l24.5 20.5t14.5 11.5l10 10t5 13q-11 0 -18.5 -5.5t-18.5 -5.5q-29 0 -55.5 13.5t-51.5 23.5q-38 15 -79 24.5t-82 9.5h-8q-5 0 -15.5 -1.5l-22 -3t-20.5 -3t-12 -1.5q-27 -5 -66.5 -20t-76 -38.5 t-62 -53t-25.5 -62.5zM30 -29q0 14 10.5 25.5t20.5 19.5q10 9 22 13.5t24 7.5t24.5 5.5t24.5 7.5h34q33 0 58.5 -3t48.5 -9.5t46 -17t52 -25.5q1 -1 3 -3.5t3 -3.5v-1v-2q-48 -44 -104.5 -71t-122.5 -27q-20 0 -44.5 3.5t-47 12.5t-37.5 25.5t-15 42.5zM30 485v12 q0 27 16.5 50.5t40.5 42t52 31t51 17.5q3 1 10 2t8 1q5 0 20 0.5t20 0.5v-4q-5 -14 -7 -26t-8 -26q-12 -24 -29 -46t-38.5 -38.5t-47 -26t-52.5 -9.5h-17zM137 122q0 -9 1 -11q0 -10 10 -10q0 36 6.5 69.5t19.5 66.5q3 6 9 13.5l12 15.5t10.5 16t4.5 14q-17 0 -30 -20 t-23 -47t-15 -54t-5 -41v-12zM165 39q0 -9 10 -18.5t23.5 -17.5t27.5 -13t22 -5q6 0 6 8v5q0 2 -3 3q-13 1 -22 2.5t-18 9.5q-2 1 -7 5.5t-10 9.5t-10 9.5t-7 6.5h-4q-8 0 -8 -5zM286 16q0 -3 2 -3t2 3t-2 3t-2 -3z" />
<glyph unicode="&#xe000;" horiz-adv-x="435" d="M0 435h435v-435h-435v435z" />
<glyph unicode="&#xfb01;" horiz-adv-x="616" d="M387.5 308.5q0.5 -2.5 0.5 -10.5q10 0 17 5.5t16 5.5q10 0 17 -5t10.5 -13t5.5 -17t2 -17v-13t0.5 -19.5t0.5 -19.5v-12q0 -33 -2 -65.5t-2 -64.5q0 -47 37 -81v-3q-2 -3 -10.5 -13t-8.5 -18q0 -6 5 -6h2q29 28 62.5 50.5t59.5 53.5v3q0 6 -5 6h-1q-2 -1 -5 -3t-4 -3 q-2 0 -8.5 -0.5t-8.5 -0.5q-21 0 -32 10t-16 31v32v32q0 8 0.5 28t1.5 42.5t1.5 42.5t0.5 28q1 5 5.5 7.5t9.5 4.5t8.5 4.5t3.5 8.5t-9 10.5t-20.5 9.5t-20.5 11t-9 15q0 5 3.5 9.5t8 9t8 9t3.5 10.5q0 3 -0.5 6.5t-4.5 3.5q-7 0 -8.5 -4t-5.5 -8q-2 -2 -6 -6.5t-8.5 -9 t-8.5 -8t-5 -4.5q-2 -1 -8 -5.5l-13 -9.5l-13.5 -10t-7.5 -6q-1 0 -5 -3.5l-9.5 -8t-11 -8.5t-8.5 -7q-5 -4 -4.5 -6.5zM447 573q0 -23 14 -33.5t37 -10.5h4q18 12 21.5 23t3.5 29v15q-7 10 -15.5 17.5t-21.5 7.5q-22 0 -32.5 -13.5t-10.5 -34.5zM17 339q5 0 20 -0.5 t20 -1.5q2 0 6 -1.5t6 -4.5q2 -14 2.5 -20.5t0.5 -18.5q0 -105 -1.5 -208t-1.5 -208v-93l3 -43l1 -1.5t2 -1.5h2h1q1 1 3.5 3t2.5 3q5 55 7 110t0 111q7 10 11 16.5t8.5 12t10 10.5t15.5 13q4 3 9.5 4l11 2t9.5 3.5t4 8.5q0 11 -12 26t-15 29q-1 27 -2 50.5t-1.5 46 t-0.5 44.5v49v13v16q0 8 0.5 14l0.5 6l6 6h14q9 0 16.5 1t13 5t5.5 13v9q-11 3 -23.5 3.5t-22.5 -0.5l-6 6v132q0 17 5.5 36.5t15.5 33.5q3 4 8 9.5t11 11t12.5 9.5t12.5 4q10 0 20.5 -7t18.5 -11q9 -5 19 -8.5t19 -8.5t14.5 -12t5.5 -20v-13q-4 -5 -16 -10.5t-12 -12.5 q0 -5 8 -5q13 0 25.5 7t22.5 17.5t15.5 24t5.5 25.5q0 29 -16 44.5t-34.5 25.5l-34.5 18t-16 23q0 12 6 17.5t13.5 9l14 6.5t6.5 9q0 7 -6 7q-11 0 -25 -5t-27 -14t-22 -20t-9 -23v-46l-3 -3q-37 -18 -65 -39.5t-45 -61.5q-6 -12 -8.5 -24.5t-7.5 -24.5l-6 -106h-52v-27z " />
<glyph unicode="&#xfb02;" horiz-adv-x="759" d="M387 -24v-2v-1q0 -3 3 -3l0.5 -0.5t1.5 -0.5q3 0 10 8.5t18 19t26.5 19.5t34.5 9q22 0 36 -15.5t14 -37.5q0 -10 -6.5 -14.5t-6.5 -19.5q9 0 14.5 8.5t10.5 13.5q3 4 10 10.5t13.5 13.5l12 12.5t7.5 6.5q3 3 10.5 9l16.5 13l17 13t11 8v10q-9 0 -17 -5t-17 -5 q-6 0 -14 4.5t-18.5 9.5t-21.5 9.5t-23 4.5q-21 0 -43 -8.5t-41.5 -22.5t-35.5 -31.5t-23 -35.5zM437 69q19 0 37.5 12.5t33.5 31t25.5 39.5t15.5 38q0 4 0.5 16l1 25l1 25t0.5 17q0 14 0.5 50t0.5 76q0 41 -0.5 77t-0.5 50q0 21 4.5 42.5t14.5 39.5t26.5 30t40.5 14 q2 0 15 -1t19 -2t15 -6t9 -12v-4q-13 3 -21.5 -1t-14 -11.5t-8 -17.5t-2.5 -20v-17q7 -13 17.5 -20.5t24.5 -7.5q22 0 36 14.5t14 37.5q0 40 -28 61.5t-65 21.5q-39 0 -69.5 -16t-52 -42t-34 -59.5t-14.5 -68.5v-43q0 -7 -0.5 -35.5t-1 -61t-1 -61t-0.5 -35.5 q-1 -33 -0.5 -68t-12.5 -67q-4 -10 -15 -20.5t-11 -20.5zM17 339q5 0 20 -0.5t20 -1.5q2 0 6 -1.5t6 -4.5q2 -14 2.5 -20.5t0.5 -18.5q0 -105 -1.5 -208t-1.5 -208v-93l3 -43l1 -1.5t2 -1.5h2h1q1 1 3.5 3t2.5 3q5 55 7 110t0 111q7 10 11 16.5t8.5 12t10 10.5t15.5 13 q4 3 9.5 4l11 2t9.5 3.5t4 8.5q0 11 -12 26t-15 29q-1 27 -2 50.5t-1.5 46t-0.5 44.5v49v13v16q0 8 0.5 14l0.5 6l6 6h14q9 0 16.5 1t13 5t5.5 13v9q-11 3 -23.5 3.5t-22.5 -0.5l-6 6v132q0 17 5.5 36.5t15.5 33.5q3 4 8 9.5t11 11t12.5 9.5t12.5 4q10 0 20.5 -7t18.5 -11 q9 -5 19 -8.5t19 -8.5t14.5 -12t5.5 -20v-13q-4 -5 -16 -10.5t-12 -12.5q0 -5 8 -5q13 0 25.5 7t22.5 17.5t15.5 24t5.5 25.5q0 29 -16 44.5t-34.5 25.5l-34.5 18t-16 23q0 12 6 17.5t13.5 9l14 6.5t6.5 9q0 7 -6 7q-11 0 -25 -5t-27 -14t-22 -20t-9 -23v-46l-3 -3 q-37 -18 -65 -39.5t-45 -61.5q-6 -12 -8.5 -24.5t-7.5 -24.5l-6 -106h-52v-27z" />
<glyph unicode="&#xfb03;" horiz-adv-x="986" d="M757.5 308.5q0.5 -2.5 0.5 -10.5q10 0 17 5.5t16 5.5q10 0 17 -5t10.5 -13t5.5 -17t2 -17v-13t0.5 -19.5t0.5 -19.5v-12q0 -33 -2 -65.5t-2 -64.5q0 -47 37 -81v-3q-2 -3 -10.5 -13t-8.5 -18q0 -6 5 -6h2q29 28 62.5 50.5t59.5 53.5v3q0 6 -5 6h-1q-2 -1 -5 -3t-4 -3 q-2 0 -8.5 -0.5t-8.5 -0.5q-21 0 -32 10t-16 31v32v32q0 8 0.5 28t1.5 42.5t1.5 42.5t0.5 28q1 5 5.5 7.5t9.5 4.5t8.5 4.5t3.5 8.5t-9 10.5t-20.5 9.5t-20.5 11t-9 15q0 5 3.5 9.5t8 9t8 9t3.5 10.5q0 3 -0.5 6.5t-4.5 3.5q-7 0 -8.5 -4t-5.5 -8q-2 -2 -6 -6.5t-8.5 -9 t-8.5 -8t-5 -4.5q-2 -1 -8 -5.5l-13 -9.5l-13.5 -10t-7.5 -6q-1 0 -5 -3.5l-9.5 -8t-11 -8.5t-8.5 -7q-5 -4 -4.5 -6.5zM817 573q0 -23 14 -33.5t37 -10.5h4q18 12 21.5 23t3.5 29v15q-7 10 -15.5 17.5t-21.5 7.5q-22 0 -32.5 -13.5t-10.5 -34.5zM387 339q5 0 20 -0.5 t20 -1.5q2 0 6 -1.5t6 -4.5q2 -14 2.5 -20.5t0.5 -18.5q0 -105 -1.5 -208t-1.5 -208v-93l3 -43l1 -1.5t2 -1.5h2h1q1 1 3.5 3t2.5 3q5 55 7 110t0 111q7 10 11 16.5t8.5 12t10 10.5t15.5 13q4 3 9.5 4l11 2t9.5 3.5t4 8.5q0 11 -12 26t-15 29q-1 27 -2 50.5t-1.5 46 t-0.5 44.5v49v13v16q0 8 0.5 14l0.5 6l6 6h14q9 0 16.5 1t13 5t5.5 13v9q-11 3 -23.5 3.5t-22.5 -0.5l-6 6v132q0 17 5.5 36.5t15.5 33.5q3 4 8 9.5t11 11t12.5 9.5t12.5 4q10 0 20.5 -7t18.5 -11q9 -5 19 -8.5t19 -8.5t14.5 -12t5.5 -20v-13q-4 -5 -16 -10.5t-12 -12.5 q0 -5 8 -5q13 0 25.5 7t22.5 17.5t15.5 24t5.5 25.5q0 29 -16 44.5t-34.5 25.5l-34.5 18t-16 23q0 12 6 17.5t13.5 9l14 6.5t6.5 9q0 7 -6 7q-11 0 -25 -5t-27 -14t-22 -20t-9 -23v-46l-3 -3q-37 -18 -65 -39.5t-45 -61.5q-6 -12 -8.5 -24.5t-7.5 -24.5l-6 -106h-52v-27z M17 339q5 0 20 -0.5t20 -1.5q2 0 6 -1.5t6 -4.5q2 -14 2.5 -20.5t0.5 -18.5q0 -105 -1.5 -208t-1.5 -208v-93l3 -43l1 -1.5t2 -1.5h2h1q1 1 3.5 3t2.5 3q5 55 7 110t0 111q7 10 11 16.5t8.5 12t10 10.5t15.5 13q4 3 9.5 4l11 2t9.5 3.5t4 8.5q0 11 -12 26t-15 29 q-1 27 -2 50.5t-1.5 46t-0.5 44.5v49v13v16q0 8 0.5 14l0.5 6l6 6h14q9 0 16.5 1t13 5t5.5 13v9q-11 3 -23.5 3.5t-22.5 -0.5l-6 6v132q0 17 5.5 36.5t15.5 33.5q3 4 8 9.5t11 11t12.5 9.5t12.5 4q10 0 20.5 -7t18.5 -11q9 -5 19 -8.5t19 -8.5t14.5 -12t5.5 -20v-13 q-4 -5 -16 -10.5t-12 -12.5q0 -5 8 -5q13 0 25.5 7t22.5 17.5t15.5 24t5.5 25.5q0 29 -16 44.5t-34.5 25.5l-34.5 18t-16 23q0 12 6 17.5t13.5 9l14 6.5t6.5 9q0 7 -6 7q-11 0 -25 -5t-27 -14t-22 -20t-9 -23v-46l-3 -3q-37 -18 -65 -39.5t-45 -61.5q-6 -12 -8.5 -24.5 t-7.5 -24.5l-6 -106h-52v-27z" />
<glyph unicode="&#xfb04;" horiz-adv-x="1129" d="M757 -24v-2v-1q0 -3 3 -3l0.5 -0.5t1.5 -0.5q3 0 10 8.5t18 19t26.5 19.5t34.5 9q22 0 36 -15.5t14 -37.5q0 -10 -6.5 -14.5t-6.5 -19.5q9 0 14.5 8.5t10.5 13.5q3 4 10 10.5t13.5 13.5l12 12.5t7.5 6.5q3 3 10.5 9l16.5 13l17 13t11 8v10q-9 0 -17 -5t-17 -5 q-6 0 -14 4.5t-18.5 9.5t-21.5 9.5t-23 4.5q-21 0 -43 -8.5t-41.5 -22.5t-35.5 -31.5t-23 -35.5zM807 69q19 0 37.5 12.5t33.5 31t25.5 39.5t15.5 38q0 4 0.5 16l1 25l1 25t0.5 17q0 14 0.5 50t0.5 76q0 41 -0.5 77t-0.5 50q0 21 4.5 42.5t14.5 39.5t26.5 30t40.5 14 q2 0 15 -1t19 -2t15 -6t9 -12v-4q-13 3 -21.5 -1t-14 -11.5t-8 -17.5t-2.5 -20v-17q7 -13 17.5 -20.5t24.5 -7.5q22 0 36 14.5t14 37.5q0 40 -28 61.5t-65 21.5q-39 0 -69.5 -16t-52 -42t-34 -59.5t-14.5 -68.5v-43q0 -7 -0.5 -35.5t-1 -61t-1 -61t-0.5 -35.5 q-1 -33 -0.5 -68t-12.5 -67q-4 -10 -15 -20.5t-11 -20.5zM387 339q5 0 20 -0.5t20 -1.5q2 0 6 -1.5t6 -4.5q2 -14 2.5 -20.5t0.5 -18.5q0 -105 -1.5 -208t-1.5 -208v-93l3 -43l1 -1.5t2 -1.5h2h1q1 1 3.5 3t2.5 3q5 55 7 110t0 111q7 10 11 16.5t8.5 12t10 10.5t15.5 13 q4 3 9.5 4l11 2t9.5 3.5t4 8.5q0 11 -12 26t-15 29q-1 27 -2 50.5t-1.5 46t-0.5 44.5v49v13v16q0 8 0.5 14l0.5 6l6 6h14q9 0 16.5 1t13 5t5.5 13v9q-11 3 -23.5 3.5t-22.5 -0.5l-6 6v132q0 17 5.5 36.5t15.5 33.5q3 4 8 9.5t11 11t12.5 9.5t12.5 4q10 0 20.5 -7t18.5 -11 q9 -5 19 -8.5t19 -8.5t14.5 -12t5.5 -20v-13q-4 -5 -16 -10.5t-12 -12.5q0 -5 8 -5q13 0 25.5 7t22.5 17.5t15.5 24t5.5 25.5q0 29 -16 44.5t-34.5 25.5l-34.5 18t-16 23q0 12 6 17.5t13.5 9l14 6.5t6.5 9q0 7 -6 7q-11 0 -25 -5t-27 -14t-22 -20t-9 -23v-46l-3 -3 q-37 -18 -65 -39.5t-45 -61.5q-6 -12 -8.5 -24.5t-7.5 -24.5l-6 -106h-52v-27zM17 339q5 0 20 -0.5t20 -1.5q2 0 6 -1.5t6 -4.5q2 -14 2.5 -20.5t0.5 -18.5q0 -105 -1.5 -208t-1.5 -208v-93l3 -43l1 -1.5t2 -1.5h2h1q1 1 3.5 3t2.5 3q5 55 7 110t0 111q7 10 11 16.5t8.5 12 t10 10.5t15.5 13q4 3 9.5 4l11 2t9.5 3.5t4 8.5q0 11 -12 26t-15 29q-1 27 -2 50.5t-1.5 46t-0.5 44.5v49v13v16q0 8 0.5 14l0.5 6l6 6h14q9 0 16.5 1t13 5t5.5 13v9q-11 3 -23.5 3.5t-22.5 -0.5l-6 6v132q0 17 5.5 36.5t15.5 33.5q3 4 8 9.5t11 11t12.5 9.5t12.5 4 q10 0 20.5 -7t18.5 -11q9 -5 19 -8.5t19 -8.5t14.5 -12t5.5 -20v-13q-4 -5 -16 -10.5t-12 -12.5q0 -5 8 -5q13 0 25.5 7t22.5 17.5t15.5 24t5.5 25.5q0 29 -16 44.5t-34.5 25.5l-34.5 18t-16 23q0 12 6 17.5t13.5 9l14 6.5t6.5 9q0 7 -6 7q-11 0 -25 -5t-27 -14t-22 -20 t-9 -23v-46l-3 -3q-37 -18 -65 -39.5t-45 -61.5q-6 -12 -8.5 -24.5t-7.5 -24.5l-6 -106h-52v-27z" />
</font>
</defs>
</svg>
